Поющее оружие. Ансамбль Александрова (2008) HDTV [H.264/1080i]

 
 Статистика раздачи 
Размер: 3.15 ГБ   |  Зарегистрирован: 27 дек 2016, 19:09   |   .torrent скачан: 0 раз
Сидеров: 1  [ 0 байт/сек ]     Личеров: 0  [ 0 байт/сек ]  
  

Поющее оружие. Ансамбль Александрова (2008) HDTV [H.264/1080i]

Сообщение explosiveone » 27 дек 2016, 19:09

Поющее оружие. Ансамбль Александрова (2008) HDTV [H.264/1080i]

Телекомпания: Россия / ВГТРК
Жанр: Документальный

Участники: Режиссер: Алексей Китайцев

Описание:
1945 год. Ялта. Ливадийский дворец. После завершения знаменитой конференции главы правительств СССР, США и Великобритании, сидя в первом ряду на концерте советских артистов, без устали аплодируют военному ансамблю. Высокие гости сражены мощным многоголосием, тончайшим лиризмом, мастерским исполнением песен. Некоторые из них − "Полюшко-поле", "Священная война" − повторяются на бис не один раз. Эти песни станут визитной карточкой Краснознаменного ансамбля и десятилетиями будут звучать на главных концертных площадках нашей страны, Европы и Америки. К ним прибавятся и станут популярными во всем мире "Калинка", "Соловьи", "Катюша", "Степь да степь кругом" и многие другие. С историей ансамбля связана и история записи гимна СССР. Репертуар этого коллектива огромен, гастрольные пути бесконечны, слава не знает границ. За всем этим стоит не только талант, но и колоссальный труд артистов, не только аплодисменты, известность, почет, но и полные драматизма эпизоды из жизни ансамбля. Концерты дважды Краснознаменного ансамбля песни и пляски часто называют "дипломатической миссией", его репертуар − "учебником истории" страны. Но самое интересное определение дал премьер-министр Великобритании Уинстон Черчилль в Ялте 1945 года, назвав ансамбль "поющим оружием", которое вполне можно было бы использовать вместо второго фронта…

Продолжительность: 00:44:21
Качество видео: HDTV [1080i]

Видео: AVC/H.264, 1920 х 1080, ~9443 kb/s
Аудио: MP2, 2 ch, 224 kb/s, CBR
Код: Выделить всё
Общее
Идентификатор                            : 16 (0x10)
Полное имя                               : Поющее оружие_Ансамбль Александрова_HD.ts
Формат                                   : MPEG-TS
Размер файла                             : 3,15 Гбайт
Продолжительность                        : 44 м.
Режим общего битрейта                    : Переменный
Общий поток                              : 10,2 Мбит/сек

Видео
Идентификатор                            : 1901 (0x76D)
Идентификатор меню                       : 901 (0x385)
Формат                                   : AVC
Формат/Информация                        : Advanced Video Codec
Профиль формата                          :
Параметр CABAC формата                   : Да
Параметр ReFrames формата                : 3 кадра
Идентификатор кодека                     : 27
Продолжительность                        : 44 м.
Битрейт                                  : 9443 Кбит/сек
Ширина                                   : 1920 пикселей
Высота                                   : 1080 пикселей
Соотношение сторон                       : 16:9
Частота кадров                           : 25,000 кадров/сек
Стандарт вещания                         : PAL
Цветовое пространство                    : YUV
Субдискретизация насыщенности            : 4:2:0
Битовая глубина                          : 8 бит
Тип развёртки                            : Чересстрочная
Порядок развёртки                        : Верхнее поле первое
Бит/(Пиксели*Кадры)                      : 0.182
Размер потока                            : 2,93 Гбайт (93%)
Основные цвета                           : BT.709
Характеристики трансфера                 : BT.709
Коэффициенты матрицы                     : BT.709

Аудио
Идентификатор                            : 2901 (0xB55)
Идентификатор меню                       : 901 (0x385)
Формат                                   : MPEG Audio
Версия формата                           : Version 1
Профиль формата                          : Layer 2
Идентификатор кодека                     : 4
Продолжительность                        : 44 м.
Вид битрейта                             : Постоянный
Битрейт                                  : 224 Кбит/сек
Каналы                                   : 2 канала
Частота                                  : 48,0 КГц
Метод сжатия                             : С потерями
Задержка видео                           : 9 мс.
Размер потока                            : 71,1 Мбайт (2%)
Язык                                     : std
Язык, дополнительно                      : Clean effects

Скриншоты:




Время раздачи: Сб-Вс с 09:00 до 23:30 (до появления первых 3-5 скачавших)
 
Не забывайте говорить Спасибо. Не уходите с раздачи!   
Торрент: Зарегистрирован [27 дек 2016, 19:09] Для скачивания .torrent
необходима регистрация
Или скачать с помощью
MediaGet
Статус:
Проверен
 
.torrent скачан: 0 раз
Хэш: f176f5b916f95afcdac44b94c2a0f4c4dc6f06a6
Размер: 3.15 ГБ (3 386 062 548 байт)
Стать Автором раздачи
 
 
Раздал: 100 ГБ
Скачал: 0 байт
Ратио: Seed.
Сообщения: 92069
Зарегистрирован: 09 апр 2015, 22:31


  • Похожие торренты
    Ответы
    Просмотры
    Последнее сообщение

Вернуться в Искусство, история искусств

Ресурс не предоставляет электронные версии произведений, а занимается лишь коллекционированием и каталогизацией ссылок, присылаемых и публикуемых на форуме нашими читателями. Если вы являетесь правообладателем какого-либо представленного материала и не желаете чтобы ссылка на него находилась в нашем каталоге, свяжитесь с нами и мы незамедлительно удалим её. Файлы для обмена на трекере предоставлены пользователями сайта, и администрация не несёт ответственности за их содержание. Просьба не заливать файлы, защищенные авторскими правами, а также файлы нелегального содержания!
cron