Острова 3 часть (89 выпускoв) (Андрей Судиловский) [2003-2016, Документальный цикл, DVB]

 
 Статистика раздачи 
Размер: 129.57 ГБ   |  Зарегистрирован: 27 дек 2016, 15:39   |   .torrent скачан: 0 раз
Сидеров: 1  [ 0 байт/сек ]     Личеров: 0  [ 0 байт/сек ]  
  

Острова 3 часть (89 выпускoв) (Андрей Судиловский) [2003-2016, Документальный цикл, DVB]

Сообщение aLaVodka » 27 дек 2016, 15:39

Острова 3 часть

Дата/Год выпуска: 2003 - 2016
Страна: Россия
Жанр: Документальный цикл
Продолжительность: 00:40:06
Перевод: Не требуется
Оригинальная аудиодорожка: русский
Режиссер: Андрей Судиловский
Источник:

Телеканал: Культура
Описание:
Документальный проект, главная тема которого - творчество как драма идей, тесно переплетенная с драмами человеческими. Авторы проекта - Виталий Трояновский и Ирина Изволова. "Острова" - телевизионный документальный цикл (производство Студии документального кинопоказа телеканала "Культура"), который с января 2000 года выходит на телеканале "Россия К".
Елена Саканян, Алексей Погребной, Майя Меркель, Александр Жуковский, Марина Разбежкина, Семен Райтбурт - имена героев первых выпусков "Островов" были не слишком известны за пределами профессионального кинематографического круга. По первоначальному замыслу каждый новый выпуск должен был стать для зрителя открытием нового "острова", обладающего своей суверенной территорией в искусстве и, как правило, непонятого или обойденного всеобщим вниманием.
Известность, когда она освещает образы людей уже ушедших от нас, нередко бывает всего лишь формой забвения. Второстепенные биографические факты, лежащие на поверхности житейские мотивы нередко заслоняют глубинную и всегда неповторимую взаимосвязь творческого дара и судьбы выдающегося художника. "Острова" устроены иначе. Эти фильмы задают вопросы, но не ищут простых ответов, не просвещают и не пытаются объяснить необъяснимое. Их цель - не исследование прошлого, а живое присутствие в нем. Отсюда - отказ от всякого авторского комментария. Говорят документы и книги, кадры из фильмов и сами герои - персонажи истории, которые в определенном смысле "рассказывают сами себя".


27.12.2016 _ добавил: Дуров Лев, Савинова Екатерина
перезаливаем
Адабашьян Александр
Айги Геннадий
Алейников Петр
Бабочкин Борис
Балаян Роман
Баталов Алексей
Бибиков Борис и Пыжова Ольга
Булычев Кир
Быков Ролан
Вампилов Александр
Васильева Татьяна
Вернадский Владимир
Владимир Максимов
Воинов Константин
Володарский Эдуард
Галич Александр
Гилельс Эмиль
Гостюхин Владимир
Гринько Николай
Джигарханян Армен
Дуров Лев
Ежов Валентин
Жалакявичюс Витаутас
Зализняк Андрей
Затворник Феофан
Каралли Вера
Колобов Евгений
Коонен Алиса
Коростылев Вадим
Куравлёв Леонид
Лотяну Эмиль
Луков Леонид
Лукьянов Сергей
Любшин Станислав
Макарова Инна
Максимов Владимир
Мамардашвили Мераб
Масленников Игорь
Меньшиков Олег
Митта Александр
Мишулин Спартак
Мкртчян Фрунзик
Мотыль Владимир
Нахабцев Владимир
Нахапетов Родион
Никулин Юрий
Обухович Николай
Окуджава Булат
Павлов Виктор
Петренко Алексей
Поженян Григорий
Протазанов Яков
Пускепалис Сергей
Раков Виктор
Романов Эрнст
Ростоцкий Станислав
Савинова Екатерин
Салтыков Алексей
Самойлов Евгений
Сафонов Всеволод
Смирнова Лидия
Сокуров Александр
Соткилава Зураб
Тарковская Марина
Тенякова Наталья
Терехова Маргарита
Тодоровский Петр
Трифонов Юрий
Учитель Алексей
Фирсова Джемма
Фрэз Илья
Хохлова Александра
Худяков Константин
Цибульский Збигнев
Чехов Михаил
Чиаурели Софико
Чигинский Валерий
Чигинский Валерий
Чуковская Лидия
Чхеидзе Резо
Шварц Евгений
Ширвиндт Александр
Шолохов Михаил
Эфроимсон Владимир
Эфрос Анатолий
Яковлева Елена
Ярвет Юри
Доп. информация:
Основные режиссеры: Виталий Трояновский, Татьяна Скабард, Ирина Изволова, Андрей Судиловский, Ольга Ларина, Сергей Головецкий, Александр Столяров, Олег Рыбаков, Мартирос Фаносян, Денис Чуваев.
Авторы проекта - Виталий Трояновский и Ирина Изволова
Руководитель проекта – Ирина Изволова

Текст читали: Валерий Баринов и Светлана Русских

качество: DVB
формат: MPG
Видео: MPEG-2 Video, 720x576 (4:3), 25 fps, 5 083 Kbps, 0.49 bit/pixel
Аудио: Russian: 48 kHz, MPEG Audio 2, 2 ch, 256 kbps
Код: Выделить всё
General
Complete name                            : C:\Острова (3 часть)\002. Михаил Шолохов (2015).mpg
Format                                   : MPEG-PS
File size                                : 1.53 GiB
Duration                                 : 40mn 6s
Overall bit rate mode                    : Variable
Overall bit rate                         : 5 447 Kbps

Video
ID                                       : 224 (0xE0)
Format                                   : MPEG Video
Format version                           : Version 2
Format profile                           : Main@Main
Format settings, BVOP                    : Yes
Format settings, Matrix                  : Custom
Format settings, GOP                     : M=3, N=15
Format settings, picture structure       : Frame
Duration                                 : 40mn 6s
Bit rate mode                            : Variable
Bit rate                                 : 5 083 Kbps
Maximum bit rate                         : 15.0 Mbps
Width                                    : 720 pixels
Height                                   : 576 pixels
Display aspect ratio                     : 4:3
Frame rate                               : 25.000 fps
Standard                                 : PAL
Color space                              : YUV
Chroma subsampling                       : 4:2:0
Bit depth                                : 8 bits
Scan type                                : Interlaced
Scan order                               : Top Field First
Compression mode                         : Lossy
Bits/(Pixel*Frame)                       : 0.490
Time code of first frame                 : 00:00:00:00
Time code source                         : Group of pictures header
GOP, Open/Closed                         : Closed
Stream size                              : 1.42 GiB (93%)

Audio
ID                                       : 192 (0xC0)
Format                                   : MPEG Audio
Format version                           : Version 1
Format profile                           : Layer 2
Duration                                 : 40mn 6s
Bit rate mode                            : Constant
Bit rate                                 : 256 Kbps
Channel(s)                               : 2 channels
Sampling rate                            : 48.0 KHz
Compression mode                         : Lossy
Delay relative to video                  : 15ms
Stream size                              : 73.4 MiB (5%)
 
Не забывайте говорить Спасибо. Не уходите с раздачи!   
Торрент: Зарегистрирован [27 дек 2016, 15:39] Для скачивания .torrent
необходима регистрация
Или скачать с помощью
MediaGet
Статус:
Проверен
 
.torrent скачан: 0 раз
Хэш: 936f0dd5e7bcd83e8e7ef790f4e38597e44a3f75
Размер: 129.57 ГБ (139 121 489 920 байт)
Стать Автором раздачи
 
 
Раздал: 100 ГБ
Скачал: 0 байт
Ратио: Seed.
Сообщения: 188762
Зарегистрирован: 09 апр 2015, 20:00


  • Похожие торренты
    Ответы
    Просмотры
    Последнее сообщение

Вернуться в Биографии. Личности и кумиры

Ресурс не предоставляет электронные версии произведений, а занимается лишь коллекционированием и каталогизацией ссылок, присылаемых и публикуемых на форуме нашими читателями. Если вы являетесь правообладателем какого-либо представленного материала и не желаете чтобы ссылка на него находилась в нашем каталоге, свяжитесь с нами и мы незамедлительно удалим её. Файлы для обмена на трекере предоставлены пользователями сайта, и администрация не несёт ответственности за их содержание. Просьба не заливать файлы, защищенные авторскими правами, а также файлы нелегального содержания!
cron