Спецотряд «Форс» 2 / Force 2 (2016) DVDRip

 
 Статистика раздачи 
Размер: 1.32 ГБ   |  Зарегистрирован: 26 дек 2016, 04:49   |   .torrent скачан: 4 раз
Сидеров: 1  [ 0 байт/сек ]     Личеров: 0  [ 0 байт/сек ]  
  

Спецотряд «Форс» 2 / Force 2 (2016) DVDRip

Сообщение explosiveone » 26 дек 2016, 04:49

Спецотряд «Форс» 2 / Force 2 (2016) DVDRip

Производство: Индия
Жанр: Боевик, Детектив, Триллер

Режиссер: Абхинай Део
Актеры: Джон Абрахам, Сонакши Синха, Тахир Радж Бхасин, Адиль Хуссэйн, Бьорн Фрайберг, Цогбаатар Бацориг, Фредди Дарувала, Боман Ирани

Описание:
Спустя пять лет после событий первой части, неизвестный террорист начинает истреблять агентов индийской внешней разведки, работающих в Восточной Европе. Зам.комиссара Яшвардхан вместе со своей напарницей Кей Кей срочно отправляются в Будапешт, чтобы выйти на след преступника...


Возраст: этот продукт не был классифицирован
Рейтинг MPAA: этот продукт не был классифицирован
Мировая премьера : 17 ноября 2016

Релиз от: Honey&Haseena

Продолжительность: 02:03:42
Качество видео: DVDRip
Перевод: Профессиональный многоголосый
Озвучка/Автор перевода: Озвучка: Давид Петросян, Михаил Цареградский, Денис Строев, Павел Ярощик и Маргарита Сахно Перевод и редакция:Honey&Haseena
Язык субтитров: Русские (неотключаемые,только на песни)
Вид субтитров: Вшитые
Реклама: рекламы нет

Видео: Xvid, 720х304, ~1075 Kbps
Аудио: AC3, 6 ch, 448 Kbps
Код: Выделить всё
Общее
Полное имя                               : D:\Specotryad.2.2016.DVDRip.avi
Формат                                   : AVI
Формат/Информация                        : Audio Video Interleave
Размер файла                             : 1,32 Гбайт
Продолжительность                        : 2 ч. 3 м.
Общий поток                              : 1532 Кбит/сек
Программа кодирования                    : VirtualDubMod 1.5.10.2 (build 2540/release)
Библиотека кодирования                   : VirtualDubMod build 2540/release

Видео
Идентификатор                            : 0
Формат                                   : xvid
Идентификатор кодека                     : xvid
Продолжительность                        : 2 ч. 3 м.
Битрейт                                  : 1075 Кбит/сек
Ширина                                   : 720 пикселей
Высота                                   : 304 пикселя
Соотношение сторон                       : 2,35:1
Частота кадров                           : 23,976 кадра/сек
Бит/(Пиксели*Кадры)                      : 0.205
Размер потока                            : 951 Мбайт (70%)

Аудио
Идентификатор                            : 1
Формат                                   : AC-3
Формат/Информация                        : Audio Coding 3
Расширение режима                        : CM (complete main)
Параметр Endianness формата              : Big
Идентификатор кодека                     : 2000
Продолжительность                        : 2 ч. 3 м.
Вид битрейта                             : Постоянный
Битрейт                                  : 448 Кбит/сек
Каналы                                   : 6 каналов
Расположение каналов                     : Front: L C R, Side: L R, LFE
Частота                                  : 48,0 КГц
Частота кадров                           : 31,250 кадров/сек (1536 spf)
Метод сжатия                             : С потерями
Размер потока                            : 396 Мбайт (29%)
Выравнивание                             : Разделение по промежуткам
Продолжительность промежутка             : 42  мс. (1,00 видеокадр)
Время предзагрузки промежутка            : 500  мс.

Скриншоты:




Время раздачи: Пн-Пт с 18:00 до 22:30,Вс с 09:00 до 22:30 (до появления первых 3-5 скачавших)
 
Не забывайте говорить Спасибо. Не уходите с раздачи!   
Торрент: Зарегистрирован [26 дек 2016, 04:49] Для скачивания .torrent
необходима регистрация
Или скачать с помощью
MediaGet
Статус:
Проверен
 
.torrent скачан: 4 раз
Хэш: da036d4f9027c369fb428d87ee8a6c1a67cb2b4b
Размер: 1.32 ГБ (1 421 611 008 байт)
Стать Автором раздачи
 
 
Раздал: 100 ГБ
Скачал: 0 байт
Ратио: Seed.
Сообщения: 89734
Зарегистрирован: 09 апр 2015, 22:31


Вернуться в Индийское кино

Ресурс не предоставляет электронные версии произведений, а занимается лишь коллекционированием и каталогизацией ссылок, присылаемых и публикуемых на форуме нашими читателями. Если вы являетесь правообладателем какого-либо представленного материала и не желаете чтобы ссылка на него находилась в нашем каталоге, свяжитесь с нами и мы незамедлительно удалим её. Файлы для обмена на трекере предоставлены пользователями сайта, и администрация не несёт ответственности за их содержание. Просьба не заливать файлы, защищенные авторскими правами, а также файлы нелегального содержания!
cron