Битва экстрасенсов (2016.12.24) WEB-DL [H.264/720p-LQ] (сезон 17, выпуск 17)

 
 Статистика раздачи 
Размер: 1.97 ГБ   |  Зарегистрирован: 26 дек 2016, 04:25   |   .torrent скачан: 4 раз
Сидеров: 1  [ 0 байт/сек ]     Личеров: 0  [ 0 байт/сек ]  
  

Битва экстрасенсов (2016.12.24) WEB-DL [H.264/720p-LQ] (сезон 17, выпуск 17)

Сообщение explosiveone » 26 дек 2016, 04:25

Битва экстрасенсов (2016.12.24) WEB-DL [H.264/720p-LQ] (сезон 17, выпуск 17)

Телекомпания: ТНТ
Жанр: Реалити Шоу

Ведущий: Марат Башаров

Описание:
С 3 сентября на ТНТ стартует долгожданный 17-й сезон «Битвы экстрасенсов» — самого мистического, непредсказуемого и загадочного проекта российского ТВ. Масштабный кастинг, новые яркие участники и высокие технологии в мире экстрасенсорики. Новый сезон обещает стать самым необычным и удивительным в истории шоу. «Мне бы очень хотелось, чтобы в новом сезоне экстрасенсы поменьше обращали бы внимание на свою самореализацию, а больше помогали людям. Ведь каждый сезон к нам обращаются те, кто действительно ждет помощи. И это, по-моему, для людей со сверхспособностями должно быть приоритетным!», — Марат Башаров, ведущий проекта.

Продолжительность: ~ 01:14:48
Качество видео: WEB-DL
Субтитры: Отсутствуют

Видео: AVC, 1280x720 (16:9), 50.000 fps, 3 512 Kbps (0.076 bit/pixel)
Аудио: AC-3, 48.0 KHz, 2 ch, 192 Kbps, CBR
Код:   Общее
Уникальный идентификатор                 : 220136259285648926504308650694935004031 (0xA59CB38C5A4B3499B8CA0FF55AE7437F)
Полное имя                               : D:\[1]\Битва экстрасенсов\Битва экстрасенсов. Сезон 17. Выпуск 17 (2016.12.24)_720.mkv
Формат                                   : Matroska
Версия формата                           : Version 2
Размер файла                             : 1,97 Гбайт
Продолжительность                        : 1 ч. 14 м.
Общий поток                              : 3779 Кбит/сек
Дата кодирования                         : UTC 2016-12-25 10:56:15
Программа кодирования                    : mkvmerge v7.9.0 ('Birds') 64bit
Библиотека кодирования                   : libebml v1.3.1 + libmatroska v1.4.2
DURATION                                 : 01:14:48.544000000
NUMBER_OF_FRAMES                         : 140267
NUMBER_OF_BYTES                          : 107725056
_STATISTICS_WRITING_APP                  : mkvmerge v7.9.0 ('Birds') 64bit
_STATISTICS_WRITING_DATE_UTC             : 2016-12-25 10:56:15
_STATISTICS_TAGS                         : BPS DURATION NUMBER_OF_FRAMES NUMBER_OF_BYTES

Видео
Идентификатор                            : 1
Формат                                   : AVC
Формат/Информация                        : Advanced Video Codec
Профиль формата                          :
Параметр CABAC формата                   : Да
Параметр ReFrames формата                : 1 кадр
Параметр GOP формата                     : M=1, N=12
Идентификатор кодека                     : V_MPEG4/ISO/AVC
Продолжительность                        : 1 ч. 14 м.
Битрейт                                  : 3512 Кбит/сек
Ширина                                   : 1280 пикселей
Высота                                   : 720 пикселей
Соотношение сторон                       : 16:9
Режим частоты кадров                     : Постоянный
Частота кадров                           : 25,000 кадров/сек
Стандарт вещания                         : Component
Цветовое пространство                    : YUV
Субдискретизация насыщенности            : 4:2:0
Битовая глубина                          : 8 бит
Тип развёртки                            : Прогрессивная
Бит/(Пиксели*Кадры)                      : 0.152
Размер потока                            : 1,84 Гбайт (93%)
Default                                  : Да
Forced                                   : Нет
Цветовой диапазон                        : Limited

Аудио
Идентификатор                            : 2
Формат                                   : AC-3
Формат/Информация                        : Audio Coding 3
Расширение режима                        : CM (complete main)
Параметр Endianness формата              : Big
Идентификатор кодека                     : A_AC3
Продолжительность                        : 1 ч. 14 м.
Вид битрейта                             : Постоянный
Битрейт                                  : 192 Кбит/сек
Каналы                                   : 2 канала
Расположение каналов                     : Front: L R
Частота                                  : 48,0 КГц
Битовая глубина                          : 16 бит
Метод сжатия                             : С потерями
Размер потока                            : 103 Мбайт (5%)
Default                                  : Да
Forced                                   : Нет
 

Скриншоты:


Время раздачи: 24/7. До первых 5 скачавших.
 
Не забывайте говорить Спасибо. Не уходите с раздачи!   
Торрент: Зарегистрирован [26 дек 2016, 04:25] Для скачивания .torrent
необходима регистрация
Или скачать с помощью
MediaGet
Статус:
Проверен
 
.torrent скачан: 4 раз
Хэш: 1fd4d04ab1e2e04239ac49f4f7eb49b42a9c6197
Размер: 1.97 ГБ (2 120 236 063 байт)
Стать Автором раздачи
 
 
Раздал: 100 ГБ
Скачал: 0 байт
Ратио: Seed.
Сообщения: 89888
Зарегистрирован: 09 апр 2015, 22:31


Вернуться в Паранормальные явления

Ресурс не предоставляет электронные версии произведений, а занимается лишь коллекционированием и каталогизацией ссылок, присылаемых и публикуемых на форуме нашими читателями. Если вы являетесь правообладателем какого-либо представленного материала и не желаете чтобы ссылка на него находилась в нашем каталоге, свяжитесь с нами и мы незамедлительно удалим её. Файлы для обмена на трекере предоставлены пользователями сайта, и администрация не несёт ответственности за их содержание. Просьба не заливать файлы, защищенные авторскими правами, а также файлы нелегального содержания!
cron