Тролли / Trolls (2016) WEB-DLRip [H.264] [MP4|1024x432]

 
 Статистика раздачи 
Размер: 1.6 ГБ   |  Зарегистрирован: 26 дек 2016, 04:13   |   .torrent скачан: 0 раз
Сидеров: 1  [ 0 байт/сек ]     Личеров: 3  [ 0 байт/сек ]  
  

Тролли / Trolls (2016) WEB-DLRip [H.264] [MP4|1024x432]

Сообщение explosiveone » 26 дек 2016, 04:13

Тролли / Trolls (2016) WEB-DLRip

«Найди своё счастье»

Производство: Россия / DreamWorks Animation
Жанр: Мультфильм, Мюзикл, Фэнтези, Комедия, Приключения, Семейный

Режиссер: Уолт Дорн, Майк Митчелл
Актеры: Анна Кендрик, Джастин Тимберлэйк, Зои Дешанель, Кристофер Минц-Плассе, Кристин Барански, Расселл Брэнд, Гвен Стефани, Джон Клиз, Джеймс Корден, Джеффри Тэмбор

Описание:
Отправляясь в увлекательное приключение, которое заведет ее далеко от привычного ей мира, Розочка объединяет усилия с самым мрачным троллем на свете по имени Цветан для достижения успеха в своей смелой миссии спасти ее друзей из тисков зловещих бергенов и их лидера, короля Хрящ Старший. Невероятные приключения Розочки проверят ее силу, покажут ее истинную суть и бросят вызов ее способности ударяться в пение в любой момент.


Возраст: 6+ (зрителям, достигшим 6 лет)
Рейтинг MPAA: PG (рекомендуется присутствие родителей)

Релиз от: NNMClub
Продолжительность: 01:32:49
Качество видео: WEB-DLRip
Перевод: Дублированный - (iTunes)
Вид субтитров: Отсутствуют
Вид субтитров: Вшитые отключаемые
Язык субтитров: Русский, Английский

Видео: AVC/H.264 (Main@L3.1), 1024x432 (2.35:1), 2200 Кбит/сек
Аудио #1: AAC, 2 канала, 132 Кбит/сек - русский (дублированный)
Аудио #2: AAC, 2 канала, 132 Кбит/сек - английский
Код:
General
Complete name                            : C:\DGI\Trolls.2016.576p.WEB-DLRip.AAC.h264.NNMclub.mp4
Format                                   : MPEG-4
Format profile                           : Base Media / Version 2
Codec ID                                 : mp42 (mp42/isom)
File size                                : 1.60 GiB
Duration                                 : 1 h 32 min
Overall bit rate mode                    : Variable
Overall bit rate                         : 2 469 kb/s
Movie name                               : Trolls
Performer                                : Mike Mitchell
Director                                 : Mike Mitchell
Actor                                    : Anna Kendrick / Justin Timberlake / Zooey Deschanel / Christopher Mintz-Plasse / Christine Baranski / Russell Brand / Jeffrey Tambor / John Cleese / Gwen Stefani / James Corden / Caroline Hjelt / Aino Jawo / Kunal Nayyar / Ron Funches / Quvenzhané Wallis
Genre                                    : Comedy
ContentType                              : Short Film
Description                              : From the creators of Shrek comes DreamWorks Animation’s Trolls, a smart, funny and irreverent comedy
Recorded date                            : 2016-11-04
Encoded date                             : UTC 2016-12-25 09:07:06
Tagged date                              : UTC 2016-12-25 09:12:17
Copyright                                : © 2016 DreamWorks Animation, L.L.C
Cover                                    : Yes
LongDescription                          : From the creators of Shrek comes DreamWorks Animation’s Trolls, a smart, funny and irreverent comedy about the search for happiness, and just how far some will go to get it. This hilarious film transports audiences to a colorful, wondrous world populated by the overly optimistic Trolls, who have a constant dance in their step and a song on their lips, and the comically pessimistic Bergens, who are only happy when they have Trolls in their stomachs. After the Bergens invade Troll Village, Poppy (Kendrick), the happiest Troll ever born, and the overly-cautious curmudgeonly Branch (Timberlake) set off on a journey to rescue her friends. Together, this mismatched duo embarks on a mission full of adventure and mishaps – trying to tolerate each other long enough to get the job done. Utilizing music to further the film's narrative, the Trolls soundtrack is produced by Justin Timberlake and features original songs by Justin Timberlake and Gwen Stefani, in addition to a number of classic hits from the ‘60s – ‘80s.
AppleStoreCountry                        : United States
AppleStoreCatalogID                      : 1158349647
ContentRating                            : mpaa|PG|200|

Video
ID                                       : 1
Format                                   : AVC
Format/Info                              : Advanced Video Codec
Format profile                           :
Format settings, CABAC                   : Yes
Format settings, ReFrames                : 3 frames
Codec ID                                 : avc1
Codec ID/Info                            : Advanced Video Coding
Duration                                 : 1 h 32 min
Bit rate                                 : 2 200 kb/s
Width                                    : 1 024 pixels
Height                                   : 432 pixels
Display aspect ratio                     : 2.40:1
Frame rate mode                          : Variable
Frame rate                               : 23.976 (24000/1001) FPS
Minimum frame rate                       : 23.810 FPS
Maximum frame rate                       : 24.390 FPS
Color space                              : YUV
Chroma subsampling                       : 4:2:0
Bit depth                                : 8 bits
Scan type                                : Progressive
Bits/(Pixel*Frame)                       : 0.207
Stream size                              : 1.43 GiB (89%)
Writing library                          : x264 core 148 r2744+55 950084e t_mod_Custom [8-bit@all X86_64]
Encoding settings                        : cabac=1 / ref=3 / deblock=1:-1:-1 / analyse=0x1:0x111 / me=umh / subme=7 / psy=1 / fade_compensate=0.00 / psy_rd=1.00:0.00 / mixed_ref=1 / me_range=32 / chroma_me=1 / trellis=2 / 8x8dct=0 / cqm=0 / deadzone=21,11 / fast_pskip=0 / chroma_qp_offset=-2 / threads=12 / lookahead_threads=2 / sliced_threads=0 / nr=0 / decimate=0 / interlaced=0 / bluray_compat=0 / constrained_intra=0 / fgo=0 / bframes=3 / b_pyramid=1 / b_adapt=2 / b_bias=0 / direct=3 / weightb=1 / open_gop=0 / weightp=2 / keyint=240 / keyint_min=23 / scenecut=40 / intra_refresh=0 / rc_lookahead=50 / rc=2pass / mbtree=1 / bitrate=2200 / ratetol=1.0 / qcomp=0.60 / qpmin=0:0:0 / qpmax=69:69:69 / qpstep=4 / cplxblur=20.0 / qblur=0.5 / vbv_maxrate=10000 / vbv_bufsize=10000 / nal_hrd=none / filler=0 / ip_ratio=1.40 / aq=3:0.85 / aq-sensitivity=10.00 / aq-factor=1.00:1.00:1.00 / aq2=1:0.95 / aq2-sensitivity=15.00 / aq2-factor=1.00:1.00:1.00 / aq3=4:[0.50:0.50]:[0.50:0.50]:[0.50:0.50]:[0.50:0.50] / aq3-sensitivity=10.00 / aq3-factor=[1.00:1.00]:[1.00:1.00]:[1.00:1.00] / aq3-boundary=192:64:24
Encoded date                             : UTC 2016-12-25 09:07:06
Tagged date                              : UTC 2016-12-25 09:12:17
Color range                              : Limited
Color primaries                          : BT.709
Transfer characteristics                 : BT.709
Matrix coefficients                      : BT.709
Menus                                    : 7

Audio #1
ID                                       : 2
Format                                   : AAC
Format/Info                              : Advanced Audio Codec
Format profile                           : LC
Codec ID                                 : 40
Duration                                 : 1 h 32 min
Source duration                          : 1 h 32 min
Bit rate mode                            : Variable
Nominal bit rate                         : 132 kb/s
Maximum bit rate                         : 208 kb/s
Channel(s)                               : 2 channels
Channel positions                        : Front: L R
Sampling rate                            : 48.0 kHz
Frame rate                               : 46.875 FPS (1024 spf)
Compression mode                         : Lossy
Source stream size                       : 86.5 MiB (5%)
Language                                 : Russian
Default                                  : Yes
Alternate group                          : 1
Encoded date                             : UTC 2016-12-25 09:07:06
Tagged date                              : UTC 2016-12-25 09:12:17

Audio #2
ID                                       : 3
Format                                   : AAC
Format/Info                              : Advanced Audio Codec
Format profile                           : LC
Codec ID                                 : 40
Duration                                 : 1 h 32 min
Source duration                          : 1 h 32 min
Bit rate mode                            : Variable
Nominal bit rate                         : 132 kb/s
Maximum bit rate                         : 208 kb/s
Channel(s)                               : 2 channels
Channel positions                        : Front: L R
Sampling rate                            : 48.0 kHz
Frame rate                               : 46.875 FPS (1024 spf)
Compression mode                         : Lossy
Source stream size                       : 86.6 MiB (5%)
Language                                 : English
Default                                  : No
Alternate group                          : 1
Encoded date                             : UTC 2016-12-25 09:07:06
Tagged date                              : UTC 2016-12-25 09:12:17

Text #1
ID                                       : 4
Format                                   : Timed Text
Muxing mode                              : sbtl
Codec ID                                 : tx3g
Duration                                 : 1 h 32 min
Bit rate mode                            : Variable
Bit rate                                 : 0 b/s
Stream size                              : 73.0 Bytes (0%)
Language                                 : Russian
Default                                  : Yes
Forced                                   : No
Alternate group                          : 2
Encoded date                             : UTC 2016-12-25 09:07:06
Tagged date                              : UTC 2016-12-25 09:12:17

Text #2
ID                                       : 5
Format                                   : Timed Text
Muxing mode                              : sbtl
Codec ID                                 : tx3g
Duration                                 : 1 h 32 min
Bit rate mode                            : Variable
Bit rate                                 : 111 b/s
Stream size                              : 75.1 KiB (0%)
Language                                 : Russian
Default                                  : No
Forced                                   : No
Alternate group                          : 2
Encoded date                             : UTC 2016-12-25 09:07:06
Tagged date                              : UTC 2016-12-25 09:12:17

Text #3
ID                                       : 6
Format                                   : Timed Text
Muxing mode                              : sbtl
Codec ID                                 : tx3g
Duration                                 : 1 h 24 min
Bit rate mode                            : Variable
Bit rate                                 : 80 b/s
Stream size                              : 49.3 KiB (0%)
Language                                 : English
Default                                  : No
Forced                                   : No
Alternate group                          : 2
Encoded date                             : UTC 2016-12-25 09:07:06
Tagged date                              : UTC 2016-12-25 09:12:17

Menu
ID                                       : 7
Codec ID                                 : text
Duration                                 : 1 h 32 min
Language                                 : English
Encoded date                             : UTC 2016-12-25 09:12:17
Tagged date                              : UTC 2016-12-25 09:12:17
Menu For                                 : 1
00:00:00.000                             : 1
00:02:19.472                             : 2
00:06:21.922                             : 3
00:10:41.640                             : 4
00:13:25.595                             : 5
00:18:33.361                             : 6
00:22:11.787                             : 7
00:25:40.078                             : 8
00:28:52.728                             : 9
00:32:54.094                             : 10
00:36:32.103                             : 11
00:40:55.783                             : 12
00:44:20.654                             : 13
00:47:26.965                             : 14
00:51:26.079                             : 15
00:55:44.670                             : 16
00:59:57.756                             : 17
01:03:16.079                             : 18
01:05:16.657                             : 19
01:07:55.524                             : 20
01:10:24.256                             : 21
01:13:30.650                             : 22
01:16:20.236                             : 23
01:21:43.726                             : 24
Bit rate mode                            : VBR


Скриншоты:



Время раздачи: 24/7 (круглосуточно) (до появления первых 3-5 скачавших)
 
Не забывайте говорить Спасибо. Не уходите с раздачи!   
Торрент: Зарегистрирован [26 дек 2016, 04:13] Для скачивания .torrent
необходима регистрация
Или скачать с помощью
MediaGet
Статус:
Проверен
 
.torrent скачан: 0 раз
Хэш: 3b3155ebdd2b7524c4abf4dd3b48614561c9bc21
Размер: 1.6 ГБ (1 718 948 647 байт)
Стать Автором раздачи
 
 
Раздал: 100 ГБ
Скачал: 0 байт
Ратио: Seed.
Сообщения: 94068
Зарегистрирован: 09 апр 2015, 22:31


  • Похожие торренты
    Ответы
    Просмотры
    Последнее сообщение

Вернуться в Видео для мобильных устройств

Ресурс не предоставляет электронные версии произведений, а занимается лишь коллекционированием и каталогизацией ссылок, присылаемых и публикуемых на форуме нашими читателями. Если вы являетесь правообладателем какого-либо представленного материала и не желаете чтобы ссылка на него находилась в нашем каталоге, свяжитесь с нами и мы незамедлительно удалим её. Файлы для обмена на трекере предоставлены пользователями сайта, и администрация не несёт ответственности за их содержание. Просьба не заливать файлы, защищенные авторскими правами, а также файлы нелегального содержания!
cron