Вторая мировая: Ад под водой (1 сезон, 4 серии из 6) / WW2: Hell under the Sea [2016, Документальный, флот, война, история, SATRip]

 
 Статистика раздачи 
Размер: 2.43 ГБ   |  Зарегистрирован: 25 дек 2016, 23:42   |   .torrent скачан: 1 раз
Сидеров: 19  [ 0 байт/сек ]     Личеров: 6  [ 0 байт/сек ]  
  

Вторая мировая: Ад под водой (1 сезон, 4 серии из 6) / WW2: Hell under the Sea [2016, Документальный, флот, война, история, SATRip]

Сообщение aLaVodka » 25 дек 2016, 23:42

Вторая мировая: Ад под водой (1 сезон, 4 серии из 6) / WW2: Hell under the Sea

Дата/Год выпуска: 2016
Страна: Канада, National Geographic
Жанр: Документальный, флот, война, история
Продолжительность: 3 х ~ 00:44:02
Перевод: Профессиональный (одноголосый)
Телеканал: National Geographic

Описание: «Вторая мировая. Ад под водой» - это сериал, на основе реальных событий, картографически точно воспроизводящий разные эпизоды невидимой подводной войны, сопровождаемые драматичными рассказами о рейдах подводных патрулей во время Второй мировой войны. Экспертный анализ событий тех дней и видеоматериалы переплетаются с реконструкциями на основе воспоминаний участников и сопровождаются кадрами хроники боевых действий подводных лодок того времени, что позволяет поместить персонажей в центр событий.

Доп. информация: Авторство релиза - alf62
БОЛЬШОЕ СПАСИБО ПЕЧАЛЬ, за предоставленный постер!

IMDb
качество: SATRip
формат: AVI
Видео: 720x400 (1.80:1), 25 fps, XviD build 73 ~1799 kbps avg, 0.25 bit/pixel
Аудио: 48 kHz, AC3 Dolby Digital, 2/0 (L,R) ch, ~192.00 kbps avg
1. «Волчья стая» / The Wolfpack
Тактика «Волчьей стаи» прославила адмирала Дёница, вдохновителя гитлеровских подводников. Его стратегия: отправлять группы подводных лодок против конвоев судов , направляющихся из Канады в Великобританию, чтобы сократить морские поставки. В самом начале войны, один из лучших немецких асов-подводников Отто Кречмер, потопил десятки кораблей Союзников. Сначала в одиночку, потом в составе смертоносной «волчьей стаи», пока роковая ошибка не поставила точу в его карьере..

3. Америка наносит ответный удар / America Fights Back
Январь 1943 года, Тихий океан. Американская подводная лодка «Wahoo» под командованием Дадли Мортона всего 10 дней назад отправилась в своей первый поход. Ее задача - топить японские корабли и нарушить линии снабжения. Эта агрессивная стратегия является принципиально новой тактикой для ВМС США, а Мортон просто человек, чтобы осуществить ее.

5. Убийца эсминцев / Destroyer Killer
13 апреля 1944 года. Южная часть Тихого океана. Экипаж подводной лодки США «Harder», под командованием Сэма Дили, готовится вступить в бой с вражеским эсминцем. За три похода они потопили уже 10 торговых японских судов. Но с эсминцами они еще не тягались…

6. Последнее задание / Fatal Voyage
В проливе между оккупированным Китаем и островом Формоза командир подводной лодки «Tang» Дик О'Кэйн атаковал конвой японских кораблей и потопил два из них. Лодка участвовала в самых дерзких атаках на суда японцев во время Второй мировой войны. Пока удача не изменила экипажу. Лодку погубила собственная торпеда…
Код: Выделить всё
ВМВ.Ад.под.водой.(1.сезон.03.серия).Америка.наносит.ответный.удар.2016.XviD.SATRip.alf62.avi
Формат                                   : AVI
Формат/Информация                        : Audio Video Interleave
Размер файла                             : 630 Мбайт
Продолжительность                        : 44 м.
Общий поток                              : 2002 Кбит/сек
Программа кодирования                    : VirtualDubMod 1.5.10.3 | www.virtualdub-fr.org || (build 2550/release)
Библиотека кодирования                   : VirtualDubMod build 2550/release

Видео
Идентификатор                            : 0
Формат                                   : MPEG-4 Visual
Профиль формата                          : Advanced [email protected]
Параметр BVOP формата                    : 2
Параметр QPel формата                    : Нет
Параметр GMC формата                     : Без точки перехода
Параметр матрицы формата                 : Default (MPEG)
Идентификатор кодека                     : XVID
Идентификатор кодека/Подсказка           : XviD
Продолжительность                        : 44 м.
Битрейт                                  : 1800 Кбит/сек
Ширина                                   : 720 пикселей
Высота                                   : 400 пикселей
Соотношение сторон                       : 16:9
Частота кадров                           : 25,000 кадров/сек
Цветовое пространство                    : YUV
Субдискретизация насыщенности            : 4:2:0
Битовая глубина                          : 8 бит
Тип развёртки                            : Прогрессивная
Метод сжатия                             : С потерями
Бит/(Пиксели*Кадры)                      : 0.250
Размер потока                            : 567 Мбайт (90%)
Библиотека кодирования                   : XviD 73

Аудио
Идентификатор                            : 1
Формат                                   : AC-3
Формат/Информация                        : Audio Coding 3
Расширение режима                        : CM (complete main)
Параметр Endianness формата              : Big
Идентификатор кодека                     : 2000
Продолжительность                        : 44 м.
Вид битрейта                             : Постоянный
Битрейт                                  : 192 Кбит/сек
Каналы                                   : 2 канала
Расположение каналов                     : Front: L R
Частота                                  : 48,0 КГц
Битовая глубина                          : 16 бит
Метод сжатия                             : С потерями
Размер потока                            : 60,5 Мбайт (10%)
Выравнивание                             : Разделение по промежуткам
Продолжительность промежутка             : 40  мс. (1,00 видеокадр)
Время предзагрузки промежутка            : 500  мс.
Внимание! Раздача ведётся путём добавления новых серий
Внимание! Раздача ведётся путём добавления новых серий; при каждом добавлении создаётся новый торрент. Чтобы начать докачку новой серии, пользователям необходимо сделать следующее:
• Остановить скачивание.
• Удалить старый торрент у себя из клиента (старые серии удалять не надо).
• Скачать новый торрент и запустить его у себя в клиенте вместо старого, при этом указать клиенту путь в старую папку куда и должно происходить скачивание новых серий.
Ваш клиент при этом должен произвести хеширование (проверку) старой папки (если не производит сам - помогите ему сделать это), и будет докачивать только те серии которых у вас ещё нет. Старые серии при этом не удаляются, а продолжают раздаваться!
Eсли вы уже удалили старые серии, то предотвратить повторную закачку старых серий можно, отжав галочку в соответсвующих местах при запуске нового торрента. По возможности, желательно не удалять старые серии как можно дольше чтобы релизёр не столько продолжал раздавать старые серии, а смог сконцентрироваться на новых.




 
Не забывайте говорить Спасибо. Не уходите с раздачи!   
Торрент: Зарегистрирован [25 дек 2016, 23:42] Для скачивания .torrent
необходима регистрация
Или скачать с помощью
MediaGet
Статус:
Проверен
 
.torrent скачан: 1 раз
Хэш: 24c12c7669607e3cab14d13559a8ecbf75e39936
Размер: 2.43 ГБ (2 609 121 280 байт)
Стать Автором раздачи
 
 
Раздал: 100 ГБ
Скачал: 0 байт
Ратио: Seed.
Сообщения: 175184
Зарегистрирован: 09 апр 2015, 20:00


  • Похожие торренты
    Ответы
    Просмотры
    Последнее сообщение

Вернуться в Вторая мировая война

Кто сейчас на конференции

Сейчас эту тему просматривают: нет зарегистрированных пользователей и гости: 1

Ресурс не предоставляет электронные версии произведений, а занимается лишь коллекционированием и каталогизацией ссылок, присылаемых и публикуемых на форуме нашими читателями. Если вы являетесь правообладателем какого-либо представленного материала и не желаете чтобы ссылка на него находилась в нашем каталоге, свяжитесь с нами и мы незамедлительно удалим её. Файлы для обмена на трекере предоставлены пользователями сайта, и администрация не несёт ответственности за их содержание. Просьба не заливать файлы, защищенные авторскими правами, а также файлы нелегального содержания!