Во сне и наяву, Часть 2 / Faut Pas Rever (11 выпусков) (Жан-Пьер Бозон / Jean-Pierre Bozon) [2015 - 2016, документальный, путешествия, DVB] Original (Fre) + Sub (Rus)

 
 Статистика раздачи 
Размер: 27.48 ГБ   |  Зарегистрирован: 25 дек 2016, 16:59   |   .torrent скачан: 0 раз
Сидеров: 1  [ 0 байт/сек ]     Личеров: 0  [ 0 байт/сек ]  
  

Во сне и наяву, Часть 2 / Faut Pas Rever (11 выпусков) (Жан-Пьер Бозон / Jean-Pierre Bozon) [2015 - 2016, документальный, путешествия, DVB] Original (Fre) + Sub (Rus)

Сообщение aLaVodka » 25 дек 2016, 16:59

Во сне и наяву, Часть 2
Faut Pas Rêver
#77Дата/Год выпуска: 2015 - 2016
Страна: Франция
Жанр: документальный, путешествия
Продолжительность: 20:13:53 (11 по ~01:50:00)
Перевод: Субтитры (перевод И.Рыбкиной, Éclair Group)
Русские субтитры: есть

Формат субтитров: hardsub (неотключаемые)
Доп. информация о субтитрах: русские
Оригинальная аудиодорожка: французский

Режиссер: Жан-Пьер Бозон / Jean-Pierre Bozon

Телеканал: TV5MONDE Europe

Описание: Тележурнал "Во сне и наяву" был создан в 1990 году и транслируется France 3. С осени 2014 года программу ведет Филипп Гуглер / Philippe Gougler, предлагая телезрителям увлекательные путешествия по всему миру. Программа была задумана автором "Морского журнала – Thalassa" Жоржем Перну / Georges Pernoud и изначально транслировалась сразу после нее, создавая целый блок телепутешествий в пятничный вечер. Сегодня программа выходит один раз в два месяца и является самостоятельной информационно-познавательной передачей, ориентированной на широкий круг телезрителей, интересующихся жизнью населения других стран. Программа является частью интерактивного проекта, включающего в себя интернет-сайт, на котором размещаются бонусы к тележурналу, и блог ведущего.

Доп. информация: Hot Bird (13.0°E) DVB-S. Начиная со 2-го выпуска отключаемые субтитры на 6 языках (русский, английский, французский, немецкий, нидерландский, румынский)

качество: DVB
формат: MKV
Видео: MPEG Video 2, 704/720x576@1024x576 (16:9), 25 fps, ~3027 kbps avg, 0.299 bit/pixel
Аудио: MPEG Audio 2, 2 ch, 48 kHz, ~192.00 kbps avg - французский
Код: Выделить всё
01. Ирландия / Irlande (2015)
02. Коста-Рика / Costa Rica (2015)
03. Миссисипи / Mississippi (2015)
04. Исландия / Islande (2015)
05. Вокруг света / Le tour du monde (2015)[hr][/hr]06. Гималаи / Himalaya (2016)
07. Южно-Африканская республика / Afrique du sud (2016)
08. Таиланд / Thailande (2016)
09. Новая Зеландия / Nouvelle Zelande (2016)
10. Чили / Chili (2016)
11. Вокруг света / Tour du Monde (2016)
Код: Выделить всё
Общее
Уникальный идентификатор                 : 212130044201802022092070857577488687599 (0x9F96C2AB19036EE99E8DDD04338BA1EF)
Полное имя                               : 01. Irlande(2015)DVB.mkv
Формат                                   : Matroska
Версия формата                           : Version 2
Размер файла                             : 2,52 Гбайт
Продолжительность                        : 1 ч. 49 м.
Режим общего битрейта                    : Переменный
Общий поток                              : 3285 Кбит/сек
Дата кодирования                         : UTC 2015-02-21 14:39:23
Программа кодирования                    : mkvmerge v7.6.0 ('Garden of Dreams') 64bit built on Feb  8 2015 13:04:34
Библиотека кодирования                   : libebml v1.3.1 + libmatroska v1.4.2

Видео
Идентификатор                            : 1
Формат                                   : MPEG Video
Версия формата                           : Version 2
Профиль формата                          : Main@Main
Параметр BVOP формата                    : Да
Параметр матрицы формата                 : Выборочная
Параметр GOP формата                     : M=3, N=15
Format_Settings_PictureStructure         : Frame
Идентификатор кодека                     : V_MPEG2
Идентификатор кодека/Информация          : MPEG 1 or 2 Video
Продолжительность                        : 1 ч. 49 м.
Вид битрейта                             : Переменный
Битрейт                                  : 3027 Кбит/сек
Ширина                                   : 704 пикселя
Высота                                   : 576 пикселей
Соотношение сторон                       : 16:9
Режим частоты кадров                     : Постоянный
Частота кадров                           : 25,000 кадров/сек
Стандарт вещания                         : PAL
Цветовое пространство                    : YUV
Субдискретизация насыщенности            : 4:2:0
Битовая глубина                          : 8 бит
Тип развёртки                            : Чересстрочная
Порядок развёртки                        : Верхнее поле первое
Метод сжатия                             : С потерями
Бит/(Пиксели*Кадры)                      : 0.299
Временной код первого кадра              : 00:00:00:00
Оригинал временного кода                 : Group of pictures header
Размер потока                            : 2,32 Гбайт (92%)
Default                                  : Да
Forced                                   : Нет
Gop_OpenClosed_FirstFrame                : Closed

Аудио
Идентификатор                            : 2
Формат                                   : MPEG Audio
Версия формата                           : Version 1
Профиль формата                          : Layer 2
Идентификатор кодека                     : A_MPEG/L2
Идентификатор кодека/Подсказка           : MP2
Продолжительность                        : 1 ч. 49 м.
Вид битрейта                             : Постоянный
Битрейт                                  : 192 Кбит/сек
Каналы                                   : 2 канала
Частота                                  : 48,0 КГц
Метод сжатия                             : С потерями
Размер потока                            : 151 Мбайт (6%)
Язык                                     : French
Default                                  : Да
Forced                                   : Нет





Внимание! Раздача ведётся путём добавления новых выпусков; при каждом добавлении создаётся новый торрент. Чтобы начать докачку нового выпуска, пользователям необходимо сделать следующее:
(1) остановить скачивание,
(2) удалить старый торрент у себя из клиента (старые серии удалять не надо),
(3) скачать новый торрент и запустить его у себя в клиенте вместо старого, при этом указать клиенту путь в старую папку куда и должно происходить скачивание новых выпусков.

Ваш клиент при этом должен произвести хеширование (проверку) старой папки (если не производит сам - помогите ему сделать это). В результате он будет докачивать только те выпуски, которых у Вас ещё нет. Старые выпуски при этом не удаляются, а продолжают раздаваться!

Eсли Вы уже удалили старые выпуски, то предотвратить их повторную закачку можно, сняв галочки в соответствующих местах при запуске нового торрента. По возможности, желательно не удалять старые выпуски как можно дольше, чтобы релизёр не только продолжал раздавать старые выпуски, но и смог сконцентрироваться на новых.

[2'128]
 
Не забывайте говорить Спасибо. Не уходите с раздачи!   
Торрент: Зарегистрирован [25 дек 2016, 16:59] Для скачивания .torrent
необходима регистрация
Или скачать с помощью
MediaGet
Статус:
Проверен
 
.torrent скачан: 0 раз
Хэш: 0407064b765306145492a208dfd7a522737d9b46
Размер: 27.48 ГБ (29 505 853 419 байт)
Стать Автором раздачи
 
 
Раздал: 100 ГБ
Скачал: 0 байт
Ратио: Seed.
Сообщения: 185088
Зарегистрирован: 09 апр 2015, 20:00


  • Похожие торренты
    Ответы
    Просмотры
    Последнее сообщение

Вернуться в Путешествия и туризм (видео)

Кто сейчас на конференции

Сейчас эту тему просматривают: нет зарегистрированных пользователей и гости: 1

Ресурс не предоставляет электронные версии произведений, а занимается лишь коллекционированием и каталогизацией ссылок, присылаемых и публикуемых на форуме нашими читателями. Если вы являетесь правообладателем какого-либо представленного материала и не желаете чтобы ссылка на него находилась в нашем каталоге, свяжитесь с нами и мы незамедлительно удалим её. Файлы для обмена на трекере предоставлены пользователями сайта, и администрация не несёт ответственности за их содержание. Просьба не заливать файлы, защищенные авторскими правами, а также файлы нелегального содержания!