Сезоны (Времена года) / Les Saisons (Seasons) (Жак Перрен / Jacques Perrin, Жак Клюзо /Jacques Cluzaud) [2015, Документальный, природа, BDRip 720p] VO (Ю.Онищенко), VO Ukr (Ю.Онищенко) + Sub Rus, Ukr, Fr + Original Fr

 
 Статистика раздачи 
Размер: 4.43 ГБ   |  Зарегистрирован: 25 дек 2016, 16:12   |   .torrent скачан: 0 раз
Сидеров: 11  [ 0 байт/сек ]     Личеров: 4  [ 0 байт/сек ]  
  

Сезоны (Времена года) / Les Saisons (Seasons) (Жак Перрен / Jacques Perrin, Жак Клюзо /Jacques Cluzaud) [2015, Документальный, природа, BDRip 720p] VO (Ю.Онищенко), VO Ukr (Ю.Онищенко) + Sub Rus, Ukr, Fr + Original Fr

Сообщение aLaVodka » 25 дек 2016, 16:12

Сезоны (Времена года) / Les Saisons (Seasons)
Год выпуска: 2015
Страна: Франция, Германия
Студия: France 2 Cineeema, Galatee Films, Pandora Filmproduktion GmbH, Pathe
Жанр: Документальный, природа, животные, флора
Продолжительность: 01:36:02
Перевод: Одноголосый (закадровый), одноголосый украинский (закадровый) - Ю.Онищенко (ник - Logos71)
Субтитры: Русские, украинские, французские
Режиссер: Жак Перрен / Jacques Perrin, Жак Клюзо / Jacques Cluzaud

Описание: «Сезоны» - документальный фильм от режиссеров «Птицы» и «Океаны», является чувствительным и оригинальным эпосом, который связывает долгую и бурную историю, объединяющую людей и животных. Он увлекают зрителя в путешествие во времени, в европейские ландшафты, какими они были 20 000 лет назад, когда в последний Ледниковый период человек заселял их бок о бок с дикими зверьми. Ледниковый период, зима, длившаяся 80 000 лет, завершилась очень интересным этапом, когда относительно быстро весь континент покрылся безмерным и бескрайним доисторическим лесом. Новая конфигурация планет привела к появлению времен года, ландшафт претерпел метаморфозы, развились флора и фауна.Информация о релизе: писал(а):
• Создание BDRip (720p) (кодирование видео): DeTorquemada (HDClub), сохранены оригинальные чаптеры как на Blu-ray

Озвучивание:
• Русский (AC3, 6 ch, 640 Кбит/с) - одноголосый (закадровый) - Ю.Онищенко (ник - Logos71)
• Украинский одноголосый (закадровый) (AC3, 6 ch, 640 Кбит/с) - Ю.Онищенко (ник - Logos71)

Субтитры:
• Русские двух видов:
1. Автор - Ю.Онищенко (ник - Logos71)
2. Автор - DeTorquemada (SDH)
• Украинские - Ю.Онищенко (ник - Logos71)
• Французские субтитры (SDH)

Собрал релиз (всё воедино свёл) - Fандорин

Сэмпл: http://multi-up.com/1132569

Тип релиза: BDRip 720p
Контейнер: MKV

Видео: MPEG-4 AVC, 4550 Кбит/с, 1280x534, 24.000 fps
Аудио-1: Русский (AC3, 6 ch, 640 Кбит/с, 48.0 KHz) - Ю.Онищенко (ник - Logos71)
Аудио-2: Украинский (AC3, 6 ch, 640 Кбит/с, 48.0 KHz) - Ю.Онищенко (ник - Logos71)
Аудио-3: Французский (AC3, 6 ch, 640 Кбит/с, 48.0 KHz)
Код: Выделить всё
Complete name               : D:\Раздачи\Les Saisons.(Seasons).2015.720p.BDRip.mkv
Format                      : Matroska
Format version              : Version 1
File size                   : 4.43 GiB
Duration                    : 1h 36mn
Overall bit rate            : 6 602 Kbps
Movie name                  : Create by DeTorquemada for HDCLUB
Encoded date                : UTC 2016-12-25 11:35:21
Writing application         : mkvmerge v2.1.0 ('Another Place To Fall') built on Aug 19 2007 13:40:07
Writing library             : libebml v0.7.7 + libmatroska v0.8.1

Video
ID                          : 1
Format                      : AVC
Format/Info                 : Advanced Video Codec
Format profile              : High@L4.1
Format settings, CABAC      : Yes
Format settings, ReFrames   : 12 frames
Codec ID                    : V_MPEG4/ISO/AVC
Duration                    : 1h 36mn
Bit rate                    : 4 550 Kbps
Width                       : 1 280 pixels
Height                      : 534 pixels
Display aspect ratio        : 2.40:1
Frame rate mode             : Constant
Frame rate                  : 24.000 fps
Color space                 : YUV
Chroma subsampling          : 4:2:0
Bit depth                   : 8 bits
Scan type                   : Progressive
Bits/(Pixel*Frame)          : 0.277
Stream size                 : 3.05 GiB (69%)
Title                       : Сезоны / Времена года / Les Saisons / Seasons (2015) - realise for HDCLUB
Writing library             : x264 core 148 r2705kMod 3f5ed56
Encoding settings           : cabac=1 / ref=12 / deblock=1:-3:-3 / analyse=0x3:0x133 / me=umh / subme=10 / psy=1 / fade_compensate=0.00 / psy_rd=1.05:0.00 / mixed_ref=1 / me_range=32 / chroma_me=1 / trellis=2 / 8x8dct=1 / cqm=0 / deadzone=21,11 / fast_pskip=0 / chroma_qp_offset=-2 / threads=12 / lookahead_threads=2 / sliced_threads=0 / nr=0 / decimate=0 / interlaced=0 / bluray_compat=0 / constrained_intra=0 / fgo=0 / bframes=8 / b_pyramid=2 / b_adapt=2 / b_bias=0 / direct=3 / weightb=1 / open_gop=0 / weightp=2 / keyint=240 / keyint_min=24 / scenecut=40 / intra_refresh=0 / rc_lookahead=60 / rc=crf / mbtree=0 / crf=17.0000 / qcomp=0.60 / qpmin=0 / qpmax=69 / qpstep=4 / vbv_maxrate=50000 / vbv_bufsize=62500 / crf_max=0.0 / nal_hrd=none / filler=0 / ip_ratio=1.40 / pb_ratio=1.30 / aq=3:0.85 / zones=0,321,crf=14/1778,1825,crf=15/9799,10315,crf=15
Default                     : Yes
Forced                      : No
Color range                 : Limited
Matrix coefficients         : BT.709
Statistics Tags Issue       : mkvmerge v8.9.0 ('Father Daughter') 32bit 2016-09-14 11:25:53 / mkvmerge v2.1.0 ('Another Place To Fall') built on Aug 19 2007 13:40:07 2016-12-25 11:35:21
FromStats_BitRate           : 4677459
FromStats_Duration          : 01:36:01.917000000
FromStats_FrameCount        : 138286
FromStats_StreamSize        : 3368891556

Audio #1
ID                          : 2
Format                      : AC-3
Format/Info                 : Audio Coding 3
Mode extension              : CM (complete main)
Format settings, Endianness : Big
Codec ID                    : A_AC3
Duration                    : 1h 36mn
Bit rate mode               : Constant
Bit rate                    : 640 Kbps
Channel(s)                  : 6 channels
Channel positions           : Front: L C R, Side: L R, LFE
Sampling rate               : 48.0 KHz
Frame rate                  : 31.250 fps (1536 spf)
Compression mode            : Lossy
Stream size                 : 440 MiB (10%)
Title                       : VO (Ю.Онищенко)
Language                    : Russian
Default                     : Yes
Forced                      : No

Audio #2
ID                          : 3
Format                      : AC-3
Format/Info                 : Audio Coding 3
Mode extension              : CM (complete main)
Format settings, Endianness : Big
Codec ID                    : A_AC3
Duration                    : 1h 36mn
Bit rate mode               : Constant
Bit rate                    : 640 Kbps
Channel(s)                  : 6 channels
Channel positions           : Front: L C R, Side: L R, LFE
Sampling rate               : 48.0 KHz
Frame rate                  : 31.250 fps (1536 spf)
Compression mode            : Lossy
Stream size                 : 440 MiB (10%)
Title                       : VO Ukr (Ю.Онищенко)
Language                    : Ukrainian
Default                     : No
Forced                      : No

Audio #3
ID                          : 4
Format                      : AC-3
Format/Info                 : Audio Coding 3
Mode extension              : CM (complete main)
Format settings, Endianness : Big
Codec ID                    : A_AC3
Duration                    : 1h 36mn
Bit rate mode               : Constant
Bit rate                    : 640 Kbps
Channel(s)                  : 6 channels
Channel positions           : Front: L C R, Side: L R, LFE
Sampling rate               : 48.0 KHz
Frame rate                  : 31.250 fps (1536 spf)
Compression mode            : Lossy
Stream size                 : 440 MiB (10%)
Language                    : French
Default                     : No
Forced                      : No
Statistics Tags Issue       : mkvmerge v8.9.0 ('Father Daughter') 32bit 2016-09-14 11:25:53 / mkvmerge v2.1.0 ('Another Place To Fall') built on Aug 19 2007 13:40:07 2016-12-25 11:35:21
FromStats_BitRate           : 640000
FromStats_Duration          : 01:36:02.016000000
FromStats_FrameCount        : 180063
FromStats_StreamSize        : 460961280

Text #1
ID                          : 5
Format                      : UTF-8
Codec ID                    : S_TEXT/UTF8
Codec ID/Info               : UTF-8 Plain Text
Title                       : Create by Ю.Онищенко
Language                    : Russian
Default                     : Yes
Forced                      : No
Statistics Tags Issue       : mkvmerge v8.9.0 ('Father Daughter') 32bit 2016-09-14 11:25:53 / mkvmerge v2.1.0 ('Another Place To Fall') built on Aug 19 2007 13:40:07 2016-12-25 11:35:21
FromStats_BitRate           : 8
FromStats_Duration          : 01:27:56.684000000
FromStats_FrameCount        : 105
FromStats_StreamSize        : 5658

Text #2
ID                          : 6
Format                      : UTF-8
Codec ID                    : S_TEXT/UTF8
Codec ID/Info               : UTF-8 Plain Text
Title                       : Subtitles/Captions (SDH), create by DeTorquemada
Language                    : Russian
Default                     : No
Forced                      : No
Statistics Tags Issue       : mkvmerge v8.9.0 ('Father Daughter') 32bit 2016-09-14 11:25:53 / mkvmerge v2.1.0 ('Another Place To Fall') built on Aug 19 2007 13:40:07 2016-12-25 11:35:21
FromStats_BitRate           : 23
FromStats_Duration          : 01:29:09.351000000
FromStats_FrameCount        : 407
FromStats_StreamSize        : 16025

Text #3
ID                          : 7
Format                      : UTF-8
Codec ID                    : S_TEXT/UTF8
Codec ID/Info               : UTF-8 Plain Text
Title                       : Create by Ю.Онищенко
Language                    : Ukrainian
Default                     : No
Forced                      : No

Text #4
ID                          : 8
Format                      : UTF-8
Codec ID                    : S_TEXT/UTF8
Codec ID/Info               : UTF-8 Plain Text
Title                       : Subtitles/Captions (SDH)
Language                    : French
Default                     : No
Forced                      : No
Statistics Tags Issue       : mkvmerge v8.9.0 ('Father Daughter') 32bit 2016-09-14 11:25:53 / mkvmerge v2.1.0 ('Another Place To Fall') built on Aug 19 2007 13:40:07 2016-12-25 11:35:21
FromStats_BitRate           : 14
FromStats_Duration          : 01:35:41.000000000
FromStats_FrameCount        : 418
FromStats_StreamSize        : 10509

Menu
00:00:00.000                : en:00:00:00.000
00:07:30.333                : en:00:07:30.333
00:13:42.125                : en:00:13:42.125
00:19:33.708                : en:00:19:33.708
00:23:26.333                : en:00:23:26.333
00:27:51.833                : en:00:27:51.833
00:31:46.667                : en:00:31:46.667
00:34:40.375                : en:00:34:40.375
00:45:00.250                : en:00:45:00.250
00:52:30.417                : en:00:52:30.417
00:57:21.458                : en:00:57:21.458
01:04:54.000                : en:01:04:54.000
01:11:41.875                : en:01:11:41.875
01:18:22.708                : en:01:18:22.708
01:23:23.208                : en:01:23:23.208
01:29:17.125                : en:01:29:17.125

 
Не забывайте говорить Спасибо. Не уходите с раздачи!   
Торрент: Зарегистрирован [25 дек 2016, 16:12] Для скачивания .torrent
необходима регистрация
Или скачать с помощью
MediaGet
Статус:
Проверен
 
.torrent скачан: 0 раз
Хэш: 1643c24e3bf99ea86d8729cc45ddd990af532782
Размер: 4.43 ГБ (4 754 833 574 байт)
Стать Автором раздачи
 
 
Раздал: 100 ГБ
Скачал: 0 байт
Ратио: Seed.
Сообщения: 189206
Зарегистрирован: 09 апр 2015, 20:00


  • Похожие торренты
    Ответы
    Просмотры
    Последнее сообщение

Вернуться в Флора и фауна (HD Video)

Ресурс не предоставляет электронные версии произведений, а занимается лишь коллекционированием и каталогизацией ссылок, присылаемых и публикуемых на форуме нашими читателями. Если вы являетесь правообладателем какого-либо представленного материала и не желаете чтобы ссылка на него находилась в нашем каталоге, свяжитесь с нами и мы незамедлительно удалим её. Файлы для обмена на трекере предоставлены пользователями сайта, и администрация не несёт ответственности за их содержание. Просьба не заливать файлы, защищенные авторскими правами, а также файлы нелегального содержания!
cron