(Trance) [CD] Proper Filthy Naughty - Fascination - 2003, FLAC (tracks+.cue), lossless

 
 Статистика раздачи 
Размер: 386.24 МБ   |  Зарегистрирован: 25 дек 2016, 14:40   |   .torrent скачан: 1 раз
Сидеров: 1  [ 0 байт/сек ]     Личеров: 0  [ 0 байт/сек ]  
  

(Trance) [CD] Proper Filthy Naughty - Fascination - 2003, FLAC (tracks+.cue), lossless

Сообщение aLaVodka » 25 дек 2016, 14:40

Proper Filthy Naughty / Fascination

Жанр: Trance
Носитель: CD
Страна-производитель диска (релиза): United Kingdom
Год издания: 2003
Издатель (лейбл): 10 Kilo
Номер по каталогу: 10 KGCD 05
Страна исполнителя (группы): United Kingdom
Аудиокодек: FLAC (*.flac)
Тип рипа: tracks+.cue
Битрейт аудио: lossless
Продолжительность: 00:54:55
Источник (релизер): What.cd
Наличие сканов в содержимом раздачи: да
Треклист:
1. Automatic
2. Fascination
3. Cowfunk
4. To The Beat
5. Beautiful Day
6. tich Up
7. Flow 4:40
8. Atlas
9. Philter
10. Future Burn
11. Great Western
Код: Выделить всё
Exact Audio Copy V0.99 prebeta 5 from 4. May 2009

EAC extraction logfile from 19. June 2009, 20:58

PFN / Fascination

Used drive  : HL-DT-STBD-RE  GBW-H20L   Adapter: 2  ID: 1

Read mode               : Secure
Utilize accurate stream : Yes
Defeat audio cache      : Yes
Make use of C2 pointers : No

Read offset correction                      : 667
Overread into Lead-In and Lead-Out          : No
Fill up missing offset samples with silence : Yes
Delete leading and trailing silent blocks   : No
Null samples used in CRC calculations       : No
Used interface                              : Native Win32 interface for Win NT & 2000
Gap handling                                : Appended to previous track

Used output format              : User Defined Encoder
Selected bitrate                : 128 kBit/s
Quality                         : High
Add ID3 tag                     : No
Command line compressor         : C:\Program Files (x86)\FLAC\flac.exe
Additional command line options : -8 -V -T "ARTIST=%a" -T "TITLE=%t" -T "ALBUM=%g" -T "DATE=%y" -T "TRACKNUMBER=%n" -T "GENRE=%m" -T "COMMENT=%e" -T "COMMENT=EAC (Secure Mode)" --delete-input-file %s

TOC of the extracted CD

     Track |   Start  |  Length  | Start sector | End sector
    ---------------------------------------------------------
        1  |  0:00.00 |  5:10.36 |         0    |    23285
        2  |  5:10.36 |  5:17.39 |     23286    |    47099
        3  | 10:28.00 |  5:08.02 |     47100    |    70201
        4  | 15:36.02 |  4:45.15 |     70202    |    91591
        5  | 20:21.17 |  4:43.24 |     91592    |   112840
        6  | 25:04.41 |  4:26.05 |    112841    |   132795
        7  | 29:30.46 |  4:40.56 |    132796    |   153851
        8  | 34:11.27 |  4:06.38 |    153852    |   172339
        9  | 38:17.65 |  5:24.54 |    172340    |   196693
       10  | 43:42.44 |  6:51.25 |    196694    |   227543
       11  | 50:33.69 |  4:21.53 |    227544    |   247171

Track  1

     Filename D:\Incoming\CD Rips\Proper Filthy Naughty - Fascination (2003) [FLAC]\TRY2\01 - Automatic.wav

     Pre-gap length  0:00:02.00

     Peak level 98.0 %
     Track quality 99.9 %
     Test CRC D6197374
     Copy CRC D6197374
     Accurately ripped (confidence 1)  [35D24B12]
     Copy OK

Track  2

     Filename D:\Incoming\CD Rips\Proper Filthy Naughty - Fascination (2003) [FLAC]\TRY2\02 - Fascination.wav

     Peak level 98.0 %
     Track quality 100.0 %
     Test CRC 82872137
     Copy CRC 82872137
     Accurately ripped (confidence 1)  [8ABCE20D]
     Copy OK

Track  3

     Filename D:\Incoming\CD Rips\Proper Filthy Naughty - Fascination (2003) [FLAC]\TRY2\03 - Cowfunk.wav

     Peak level 98.0 %
     Track quality 100.0 %
     Test CRC E2B6EC6D
     Copy CRC E2B6EC6D
     Accurately ripped (confidence 1)  [502D313B]
     Copy OK

Track  4

     Filename D:\Incoming\CD Rips\Proper Filthy Naughty - Fascination (2003) [FLAC]\TRY2\04 - To The Beat.wav

     Peak level 98.0 %
     Track quality 100.0 %
     Test CRC 83500733
     Copy CRC 83500733
     Accurately ripped (confidence 1)  [DEDCCD50]
     Copy OK

Track  5

     Filename D:\Incoming\CD Rips\Proper Filthy Naughty - Fascination (2003) [FLAC]\TRY2\05 - Beautiful Day.wav

     Peak level 98.0 %
     Track quality 100.0 %
     Test CRC 3C366123
     Copy CRC 3C366123
     Accurately ripped (confidence 1)  [DA29E5D5]
     Copy OK

Track  6

     Filename D:\Incoming\CD Rips\Proper Filthy Naughty - Fascination (2003) [FLAC]\TRY2\06 - Stitch Up.wav

     Peak level 98.0 %
     Track quality 100.0 %
     Test CRC F6D7AB3C
     Copy CRC F6D7AB3C
     Accurately ripped (confidence 1)  [C08A47F9]
     Copy OK

Track  7

     Filename D:\Incoming\CD Rips\Proper Filthy Naughty - Fascination (2003) [FLAC]\TRY2\07 - Flow.wav

     Peak level 97.8 %
     Track quality 100.0 %
     Test CRC 2435DD83
     Copy CRC 2435DD83
     Accurately ripped (confidence 1)  [76B197AA]
     Copy OK

Track  8

     Filename D:\Incoming\CD Rips\Proper Filthy Naughty - Fascination (2003) [FLAC]\TRY2\08 - Atlas.wav

     Peak level 97.8 %
     Track quality 100.0 %
     Test CRC F11850C1
     Copy CRC F11850C1
     Accurately ripped (confidence 1)  [41A71B3B]
     Copy OK

Track  9

     Filename D:\Incoming\CD Rips\Proper Filthy Naughty - Fascination (2003) [FLAC]\TRY2\09 - Philter.wav

     Peak level 97.8 %
     Track quality 100.0 %
     Test CRC DDF22AB0
     Copy CRC DDF22AB0
     Accurately ripped (confidence 1)  [97C64B63]
     Copy OK

Track 10

     Filename D:\Incoming\CD Rips\Proper Filthy Naughty - Fascination (2003) [FLAC]\TRY2\10 - Future Burn.wav

     Peak level 97.8 %
     Track quality 100.0 %
     Test CRC CEAA15EC
     Copy CRC CEAA15EC
     Accurately ripped (confidence 1)  [2E8BB83E]
     Copy OK

Track 11

     Filename D:\Incoming\CD Rips\Proper Filthy Naughty - Fascination (2003) [FLAC]\TRY2\11 - Great Western.wav

     Peak level 97.8 %
     Track quality 99.9 %
     Test CRC DF476D9A
     Copy CRC DF476D9A
     Accurately ripped (confidence 1)  [EEF590E3]
     Copy OK

All tracks accurately ripped

No errors occurred

End of status report
Код: Выделить всё
REM GENRE Dance
REM DATE 2003
REM DISCID 830CDF0B
REM COMMENT "ExactAudioCopy v0.99pb5"
PERFORMER "Proper Filthy Naughty"
TITLE "Fascination"
FILE "01 - Automatic.wav" WAVE
  TRACK 01 AUDIO
    TITLE "Automatic"
    PERFORMER "Proper Filthy Naughty"
    INDEX 01 00:00:00
FILE "02 - Fascination.wav" WAVE
  TRACK 02 AUDIO
    TITLE "Fascination"
    PERFORMER "Proper Filthy Naughty"
    INDEX 01 00:00:00
FILE "03 - Cowfunk.wav" WAVE
  TRACK 03 AUDIO
    TITLE "Cowfunk"
    PERFORMER "Proper Filthy Naughty"
    INDEX 01 00:00:00
FILE "04 - To The Beat.wav" WAVE
  TRACK 04 AUDIO
    TITLE "To The Beat"
    PERFORMER "Proper Filthy Naughty"
    INDEX 01 00:00:00
FILE "05 - Beautiful Day.wav" WAVE
  TRACK 05 AUDIO
    TITLE "Beautiful Day"
    PERFORMER "Proper Filthy Naughty"
    INDEX 01 00:00:00
FILE "06 - Stitch Up.wav" WAVE
  TRACK 06 AUDIO
    TITLE "Stitch Up"
    PERFORMER "Proper Filthy Naughty"
    INDEX 01 00:00:00
FILE "07 - Flow.wav" WAVE
  TRACK 07 AUDIO
    TITLE "Flow"
    PERFORMER "Proper Filthy Naughty"
    INDEX 01 00:00:00
FILE "08 - Atlas.wav" WAVE
  TRACK 08 AUDIO
    TITLE "Atlas"
    PERFORMER "Proper Filthy Naughty"
    INDEX 01 00:00:00
FILE "09 - Philter.wav" WAVE
  TRACK 09 AUDIO
    TITLE "Philter"
    PERFORMER "Proper Filthy Naughty"
    INDEX 01 00:00:00
FILE "10 - Future Burn.wav" WAVE
  TRACK 10 AUDIO
    TITLE "Future Burn"
    PERFORMER "Proper Filthy Naughty"
    INDEX 01 00:00:00
FILE "11 - Great Western.wav" WAVE
  TRACK 11 AUDIO
    TITLE "Great Western"
    PERFORMER "Proper Filthy Naughty"
    INDEX 01 00:00:00
 
Не забывайте говорить Спасибо. Не уходите с раздачи!   
Торрент: Зарегистрирован [25 дек 2016, 14:40] Скачать торрент
Скачать торрент
[ Размер 32.59 КБ / Просмотров 22 ]
Статус:
Проверен
 
.torrent скачан: 1 раз
Хэш: 945a24b4d1b3f61b7b7528edadb9408c7b839db2
Размер: 386.24 МБ (404 997 227 байт)
Стать Автором раздачи
 
 
Раздал: 100 ГБ
Скачал: 0 байт
Ратио: Seed.
Сообщения: 192073
Зарегистрирован: 09 апр 2015, 20:00


Re: (Trance) [CD] Proper Filthy Naughty - Fascination - 2003, FLAC (tracks+.cue), lossless

Сообщение aafo » 23 дек 2018, 03:25

aLaVodka

Семя пожалуйста :)
 
Раздал: 200 ГБ
Скачал: 0 байт
Ратио: Seed.
Сообщения: 1
Зарегистрирован: 13 дек 2018, 04:17


  • Похожие торренты
    Ответы
    Просмотры
    Последнее сообщение

Вернуться в Trance (lossless)

Ресурс не предоставляет электронные версии произведений, а занимается лишь коллекционированием и каталогизацией ссылок, присылаемых и публикуемых на форуме нашими читателями. Если вы являетесь правообладателем какого-либо представленного материала и не желаете чтобы ссылка на него находилась в нашем каталоге, свяжитесь с нами и мы незамедлительно удалим её. Файлы для обмена на трекере предоставлены пользователями сайта, и администрация не несёт ответственности за их содержание. Просьба не заливать файлы, защищенные авторскими правами, а также файлы нелегального содержания!
cron