Дерек / Derek (2014) HDTVRip [H.264] (сезон 2, серии 1-6 из 6 + спец.выпуск) Ozz [MP4|1280x720]

 
 Статистика раздачи 
Размер: 2.58 ГБ   |  Зарегистрирован: 25 дек 2016, 12:50   |   .torrent скачан: 0 раз
Сидеров: 1  [ 0 байт/сек ]     Личеров: 0  [ 0 байт/сек ]  
  

Дерек / Derek (2014) HDTVRip [H.264] (сезон 2, серии 1-6 из 6 + спец.выпуск) Ozz [MP4|1280x720]

Сообщение explosiveone » 25 дек 2016, 12:50

Дерек / Derek (2014) HDTVRip

Производство: Великобритания
Жанр: Драма, Комедия

Режиссер: Рики Джервэйс
Актеры: Рики Джервэйс, Керри Гадлимен, Дэвид Эрл, Тим Барлоу, Артур Найтингейл, Маргарет Таунер, Нинетт Финч, Шила Коллингс, Бэрри Мартин, Прем Модгил

Описание:
Сериал рассказывающий историю доброго 49-летнего мужчины, работающего в доме престарелых.



Продолжительность: ~00:24:00 серия | спец.выпуск 00:47:02
Качество видео: HDTVRip
Перевод: Двуголосый закадровый - Ozz
Озвучка / Автор перевода: Алексей Серёгин и Елена Каламурза / Trotteville

Видео: AVC/H.264, 1280x720 (16:9), ~1800 Кбит/сек
Аудио: AAC, 2 ch, 128 Кбит/сек, CBR
Код: Выделить всё
Формат                                   : MPEG-4
Профиль формата                          : Base Media
Идентификатор кодека                     : isom (isom/iso2/avc1/mp41)
Размер файла                             : 316 Мбайт
Продолжительность                        : 23 м. 31 с.
Общий поток                              : 1876 Кбит/сек
Программа кодирования                    : Lavf54.59.106

Видео
Идентификатор                            : 1
Формат                                   : AVC
Формат/Информация                        : Advanced Video Codec
Профиль формата                          :
Параметр CABAC формата                   : Да
Параметр ReFrames формата                : 4 кадра
Идентификатор кодека                     : avc1
Идентификатор кодека/Информация          : Advanced Video Coding
Продолжительность                        : 23 м. 31 с.
Битрейт                                  : 1800 Кбит/сек
Ширина                                   : 1280 пикселей
Высота                                   : 720 пикселей
Соотношение сторон                       : 16:9
Режим частоты кадров                     : Постоянный
Частота кадров                           : 25,000 кадров/сек
Цветовое пространство                    : YUV
Субдискретизация насыщенности            : 4:2:0
Битовая глубина                          : 8 бит
Тип развёртки                            : Прогрессивная
Бит/(Пиксели*Кадры)                      : 0.078
Размер потока                            : 293 Мбайт (93%)
Библиотека кодирования                   : x264 core 129
Настройки программы                      : cabac=1 / ref=3 / deblock=1:0:0 / analyse=0x3:0x113 / me=hex / subme=7 / psy=1 / psy_rd=1.00:0.00 / mixed_ref=1 / me_range=16 / chroma_me=1 / trellis=1 / 8x8dct=1 / cqm=0 / deadzone=21,11 / fast_pskip=1 / chroma_qp_offset=-2 / threads=24 / lookahead_threads=4 / sliced_threads=0 / nr=0 / decimate=1 / interlaced=0 / bluray_compat=0 / constrained_intra=0 / bframes=3 / b_pyramid=2 / b_adapt=1 / b_bias=0 / direct=1 / weightb=1 / open_gop=0 / weightp=2 / keyint=250 / keyint_min=25 / scenecut=40 / intra_refresh=0 / rc_lookahead=40 / rc=abr / mbtree=1 / bitrate=1800 / ratetol=1.0 / qcomp=0.60 / qpmin=0 / qpmax=69 / qpstep=4 / ip_ratio=1.40 / aq=1:1.00

Аудио
Идентификатор                            : 2
Формат                                   : AAC
Формат/Информация                        : Advanced Audio Codec
Профиль формата                          : LC
Идентификатор кодека                     : 40
Продолжительность                        : 23 м. 30 с.
Duration_LastFrame                       : -2 мс.
Вид битрейта                             : Постоянный
Битрейт                                  : 128 Кбит/сек
Каналы                                   : 2 канала
Расположение каналов                     : Front: L R
Частота                                  : 44,1 КГц
Частота кадров                           : 43,066 кадра/сек (1024 spf)
Метод сжатия                             : С потерями
Размер потока                            : 21,5 Мбайт (7%)
Язык                                     : Russian
Default                                  : Да
Alternate group                          : 1

Скриншоты:




Время раздачи:
по возможности (до появления первых 3-5 скачавших)
 
Не забывайте говорить Спасибо. Не уходите с раздачи!   
Торрент: Зарегистрирован [25 дек 2016, 12:50] Для скачивания .torrent
необходима регистрация
Или скачать с помощью
MediaGet
Статус:
Проверен
 
.torrent скачан: 0 раз
Хэш: da929d698b92db01974fc9870a33f0ebc8b587b0
Размер: 2.58 ГБ (2 774 409 666 байт)
Стать Автором раздачи
 
 
Раздал: 100 ГБ
Скачал: 0 байт
Ратио: Seed.
Сообщения: 94021
Зарегистрирован: 09 апр 2015, 22:31


  • Похожие торренты
    Ответы
    Просмотры
    Последнее сообщение

Вернуться в Видео для мобильных устройств

Ресурс не предоставляет электронные версии произведений, а занимается лишь коллекционированием и каталогизацией ссылок, присылаемых и публикуемых на форуме нашими читателями. Если вы являетесь правообладателем какого-либо представленного материала и не желаете чтобы ссылка на него находилась в нашем каталоге, свяжитесь с нами и мы незамедлительно удалим её. Файлы для обмена на трекере предоставлены пользователями сайта, и администрация не несёт ответственности за их содержание. Просьба не заливать файлы, защищенные авторскими правами, а также файлы нелегального содержания!
cron