Орел и решка. Кругосветка (2016) SATRip (сезон 12: За кадром, часть 8)

 
 Статистика раздачи 
Размер: 125.48 МБ   |  Зарегистрирован: 25 дек 2016, 09:41   |   .torrent скачан: 2 раз
Сидеров: 1  [ 0 байт/сек ]     Личеров: 0  [ 0 байт/сек ]  
  

Орел и решка. Кругосветка (2016) SATRip (сезон 12: За кадром, часть 8)

Сообщение explosiveone » 25 дек 2016, 09:41

Орел и решка. Кругосветка (2016) SATRip (сезон 12: За кадром, часть 8)

Телекомпания: Пятница
Жанр: Реалити-шоу, путешествия, география, познавательный

Ведущий: Регина Тодоренко и Леся Никитюк

Описание:
В 12-м сезоне трэвел-шоу «Орел и решка» отправляется в настоящее путешествие вокруг света! Впереди 40 стран и 270 дней пути от Гринвича до Гринвича без права возвращаться домой! Восемь человек - восемь характеров и восемь чемоданов! И никто из них теперь не спрячется за камерой. Теперь все участники на виду! Как работает съемочная группа, как отдыхает, с какими проблемами сталкивается, как их решает.


Возраст: 12+ (зрителям, достигшим 12 лет)

Релиз от: Thunder
Продолжительность: ~ 00:09:16
Качество видео: SATRip
Субтитры: Отсутствуют

Видео: MPEG4, XviD, 720x400 (16:9), 25.000 fps, 1 690 Kbps (0.235 bit/pixel)
Аудио: AC-3, 48.0 KHz, 2 ch, 192 Kbps, CBR
Код:  Общее
Полное имя                               : D:\[1]\Орел и решка. Кругосветка\Орел и решка. Сезон 12. Кругосветка. За кадром. Часть 8 (2016).avi
Формат                                   : AVI
Формат/Информация                        : Audio Video Interleave
Размер файла                             : 125 Мбайт
Продолжительность                        : 9 м. 16 с.
Общий поток                              : 1892 Кбит/сек
Название фильма                          : За кадром. (12 сезон. 213-226) [2016]
Режиссёр                                 : SATRip by Thunder
Программа кодирования                    : VirtualDubMod 1.5.10.2 (build 2542/release)
Библиотека кодирования                   : VirtualDubMod build 2542/release
Формат оригинала/Имя                     : Documentary

Видео
Идентификатор                            : 0
Формат                                   : MPEG-4 Visual
Профиль формата                          : Advanced [email protected]
Параметр BVOP формата                    : 1
Параметр QPel формата                    : Нет
Параметр GMC формата                     : Без точки перехода
Параметр матрицы формата                 : Выборочная
Идентификатор кодека                     : XVID
Идентификатор кодека/Подсказка           : XviD
Продолжительность                        : 9 м. 16 с.
Битрейт                                  : 1690 Кбит/сек
Ширина                                   : 720 пикселей
Высота                                   : 400 пикселей
Соотношение сторон                       : 16:9
Частота кадров                           : 25,000 кадров/сек
Цветовое пространство                    : YUV
Субдискретизация насыщенности            : 4:2:0
Битовая глубина                          : 8 бит
Тип развёртки                            : Прогрессивная
Метод сжатия                             : С потерями
Бит/(Пиксели*Кадры)                      : 0.235
Размер потока                            : 112 Мбайт (89%)
Библиотека кодирования                   : XviD 1.2.1 (UTC 2008-12-04)

Аудио
Идентификатор                            : 1
Формат                                   : AC-3
Формат/Информация                        : Audio Coding 3
Расширение режима                        : CM (complete main)
Параметр Endianness формата              : Big
Идентификатор кодека                     : 2000
Продолжительность                        : 9 м. 16 с.
Вид битрейта                             : Постоянный
Битрейт                                  : 192 Кбит/сек
Каналы                                   : 2 канала
Расположение каналов                     : Front: L R
Частота                                  : 48,0 КГц
Битовая глубина                          : 16 бит
Метод сжатия                             : С потерями
Размер потока                            : 12,7 Мбайт (10%)
Выравнивание                             : Разделение по промежуткам
Продолжительность промежутка             : 40  мс. (1,00 видеокадр)
Время предзагрузки промежутка            : 500  мс.
Язык                                     : Undefined
 
Фес и Кордова

Скриншоты:




Время раздачи: 24/7. До первых 5 скачавших.
 
Не забывайте говорить Спасибо. Не уходите с раздачи!   
Торрент: Зарегистрирован [25 дек 2016, 09:41] Для скачивания .torrent
необходима регистрация
Или скачать с помощью
MediaGet
Статус:
Проверен
 
.torrent скачан: 2 раз
Хэш: 9ed1e35cf595393a6ff50f85bbed8a34681d15e6
Размер: 125.48 МБ (131 577 856 байт)
Стать Автором раздачи
 
 
Раздал: 100 ГБ
Скачал: 0 байт
Ратио: Seed.
Сообщения: 82288
Зарегистрирован: 09 апр 2015, 22:31


  • Похожие торренты
    Ответы
    Просмотры
    Последнее сообщение

Вернуться в Путешествия и туризм (видео)

Кто сейчас на конференции

Сейчас эту тему просматривают: нет зарегистрированных пользователей и гости: 1

Ресурс не предоставляет электронные версии произведений, а занимается лишь коллекционированием и каталогизацией ссылок, присылаемых и публикуемых на форуме нашими читателями. Если вы являетесь правообладателем какого-либо представленного материала и не желаете чтобы ссылка на него находилась в нашем каталоге, свяжитесь с нами и мы незамедлительно удалим её. Файлы для обмена на трекере предоставлены пользователями сайта, и администрация не несёт ответственности за их содержание. Просьба не заливать файлы, защищенные авторскими правами, а также файлы нелегального содержания!