Орел и решка. Неизданное (2016.12.24) SATRip (выпуск 9)

 
 Статистика раздачи 
Размер: 623.95 МБ   |  Зарегистрирован: 25 дек 2016, 09:41   |   .torrent скачан: 0 раз
Сидеров: 1  [ 0 байт/сек ]     Личеров: 0  [ 0 байт/сек ]  
  

Орел и решка. Неизданное (2016.12.24) SATRip (выпуск 9)

Сообщение explosiveone » 25 дек 2016, 09:41

Орел и решка. Неизданное (2016.12.24) SATRip (выпуск 9)

Телекомпания: Пятница
Жанр: Реалити-шоу, путешествия, география, познавательный
Ведущий: Алан Бадоев, Жанна Бадоева, Андрей Бедняков, Леся Никитюк, Настя Короткая, Коля Серьга, Регина Тодоренко и др.

Описание:
40 городов осталось позади. 175 000 километров и восемь месяцев приключений. Как начиналось самое захватывающее путешествие? Что не попало в официальные выпуски или было вырезано цензурой? Кто входил в съемочную группу? В этом выпуске мы собрали самые интересные сюжеты и полезные советы для туристов. Что Регина делала на коровьей ферме в Антверпене? Каким должен быть идеальный чемодан путешественника? Что брать с собой в первую очередь? Как Петя встретился с племенем Ягуа в джунглях Амазонки? С какими трудностями «Орел и решка» сталкивалась в аэропортах разных стран? И как они проводили свой законный выходной после съемок? Какие еще кадры не вошли в программу, узнаем в «Орел и решка. Кругосветка. Неизданное».


Возраст: 12+ (зрителям, достигшим 12 лет)

Релиз от: Thunder
Продолжительность: ~ 00:45:53
Качество видео: SATRip
Субтитры: Отсутствуют

Видео: MPEG4, XviD, 720x400 (16:9), 30.000 fps, 1 697 Kbps (0.196 bit/pixel)
Аудио: AC-3, 48.0 KHz, 2 ch, 192 Kbps, CBR
Код:  Общее
Полное имя                               : D:\[1]\Орел и решка. Кругосветка\Орел и решка. Неизданное. Выпуск 09 (2016.12.24).avi
Формат                                   : AVI
Формат/Информация                        : Audio Video Interleave
Размер файла                             : 624 Мбайт
Продолжительность                        : 45 м.
Общий поток                              : 1901 Кбит/сек
Название фильма                          : e09. Неизданное [2016]
Режиссёр                                 : SATRip by Thunder
Программа кодирования                    : VirtualDubMod 1.5.10.3 | www.virtualdub-fr.org || (build 2550/release) VirtualDubMod build 2550/release
Формат оригинала/Имя                     : Documentary

Видео
Идентификатор                            : 0
Формат                                   : MPEG-4 Visual
Профиль формата                          : Advanced Simple@L5
Параметр BVOP формата                    : 1
Параметр QPel формата                    : Нет
Параметр GMC формата                     : Без точки перехода
Параметр матрицы формата                 : Выборочная
Идентификатор кодека                     : XVID
Идентификатор кодека/Подсказка           : XviD
Продолжительность                        : 45 м.
Битрейт                                  : 1697 Кбит/сек
Ширина                                   : 720 пикселей
Высота                                   : 400 пикселей
Соотношение сторон                       : 16:9
Частота кадров                           : 30,000 кадров/сек
Цветовое пространство                    : YUV
Субдискретизация насыщенности            : 4:2:0
Битовая глубина                          : 8 бит
Тип развёртки                            : Прогрессивная
Метод сжатия                             : С потерями
Бит/(Пиксели*Кадры)                      : 0.196
Размер потока                            : 557 Мбайт (89%)
Библиотека кодирования                   : XviD 1.2.1 (UTC 2008-12-04)

Аудио
Идентификатор                            : 1
Формат                                   : AC-3
Формат/Информация                        : Audio Coding 3
Расширение режима                        : CM (complete main)
Параметр Endianness формата              : Big
Идентификатор кодека                     : 2000
Продолжительность                        : 45 м.
Вид битрейта                             : Постоянный
Битрейт                                  : 192 Кбит/сек
Каналы                                   : 2 канала
Расположение каналов                     : Front: L R
Частота                                  : 48,0 КГц
Битовая глубина                          : 16 бит
Метод сжатия                             : С потерями
Размер потока                            : 63,0 Мбайт (10%)
Выравнивание                             : Разделение по промежуткам
Продолжительность промежутка             : 33  мс. (1,00 видеокадр)
Время предзагрузки промежутка            : 500  мс.
Язык                                     : Undefined
 

Скриншоты:




Время раздачи: 24/7. До первых 5 скачавших.
 
Не забывайте говорить Спасибо. Не уходите с раздачи!   
Торрент: Зарегистрирован [25 дек 2016, 09:41] Для скачивания .torrent
необходима регистрация
Или скачать с помощью
MediaGet
Статус:
Проверен
 
.torrent скачан: 0 раз
Хэш: 080a180afc99d1ecac7e245643799ce2f3e540d1
Размер: 623.95 МБ (654 263 946 байт)
Стать Автором раздачи
 
 
Раздал: 100 ГБ
Скачал: 0 байт
Ратио: Seed.
Сообщения: 83301
Зарегистрирован: 09 апр 2015, 22:31


  • Похожие торренты
    Ответы
    Просмотры
    Последнее сообщение

Вернуться в Путешествия и туризм (видео)

Кто сейчас на конференции

Сейчас эту тему просматривают: нет зарегистрированных пользователей и гости: 1

Ресурс не предоставляет электронные версии произведений, а занимается лишь коллекционированием и каталогизацией ссылок, присылаемых и публикуемых на форуме нашими читателями. Если вы являетесь правообладателем какого-либо представленного материала и не желаете чтобы ссылка на него находилась в нашем каталоге, свяжитесь с нами и мы незамедлительно удалим её. Файлы для обмена на трекере предоставлены пользователями сайта, и администрация не несёт ответственности за их содержание. Просьба не заливать файлы, защищенные авторскими правами, а также файлы нелегального содержания!