Затерянные миры. Портленд. Корабль-призрак (2009) DVB

 
 Статистика раздачи 
Размер: 857.86 МБ   |  Зарегистрирован: 25 дек 2016, 06:07   |   .torrent скачан: 0 раз
Сидеров: 1  [ 0 байт/сек ]     Личеров: 0  [ 0 байт/сек ]  
  

Затерянные миры. Портленд. Корабль-призрак (2009) DVB

Сообщение explosiveone » 25 дек 2016, 06:07

Затерянные миры. Портленд. Корабль-призрак (2009) DVB

Телекомпания: Россия / ЗАО "Телеканал 27"
Жанр: Документальный, История, Флот

Участники: Ведущий Вячеслав Разбегаев

Описание:
Конец 19 века. Корабль "Портленд", полный пассажиров, попал в самый центр шторма. Пароход затерялся в легендах более чем на сто лет. Никто не знал точного места или причины его крушения. Десятилетия безуспешных поисков только подпитывали навязчивую мысль. К поискам Портленда была привлечена самая современная глубоководная техника. Остается главный вопрос - что именно случилось в ту роковую ноябрьскую ночь. После ряда экспедиций ученым удалось найти останки парохода "Портленд" и частично установить причины его крушения. Шторм, погубивший корабль, до сих пор считается самым крупным бедствием в истории Новой Англии.

Продолжительность: 00:45:12
Качество видео: DVB

Видео: MPEG-2, 704х576, ~2407 kb/s
Аудио: MP2, 2 ch, 192 kb/s, CBR
Код: Выделить всё
Общее
Полное имя                               : Затерянные миры_Портленд. Корабль_призрак.mpg
Формат                                   : MPEG-PS
Размер файла                             : 858 Мбайт
Продолжительность                        : 45 м.
Режим общего битрейта                    : Переменный
Общий поток                              : 2652 Кбит/сек

Видео
Идентификатор                            : 224 (0xE0)
Формат                                   : MPEG Video
Версия формата                           : Version 2
Профиль формата                          : Main@Main
Параметр BVOP формата                    : Да
Параметр матрицы формата                 : Выборочная
Параметр GOP формата                     : Variable
Продолжительность                        : 45 м.
Вид битрейта                             : Переменный
Битрейт                                  : 2407 Кбит/сек
Максимальный битрейт                     : 6000 Кбит/сек
Ширина                                   : 704 пикселя
Высота                                   : 576 пикселей
Соотношение сторон                       : 4:3
Частота кадров                           : 25,000 кадров/сек
Стандарт вещания                         : PAL
Цветовое пространство                    : YUV
Субдискретизация насыщенности            : 4:2:0
Битовая глубина                          : 8 бит
Тип развёртки                            : Чересстрочная
Порядок развёртки                        : Верхнее поле первое
Метод сжатия                             : С потерями
Бит/(Пиксели*Кадры)                      : 0.237
Временной код первого кадра              : 00:00:00:00
Оригинал временного кода                 : Group of pictures header
Размер потока                            : 779 Мбайт (91%)

Аудио
Идентификатор                            : 192 (0xC0)
Формат                                   : MPEG Audio
Версия формата                           : Version 1
Профиль формата                          : Layer 2
Продолжительность                        : 45 м.
Вид битрейта                             : Постоянный
Битрейт                                  : 192 Кбит/сек
Каналы                                   : 2 канала
Частота                                  : 48,0 КГц
Метод сжатия                             : С потерями
Размер потока                            : 62,1 Мбайт (7%)

Меню

Скриншоты:




Время раздачи: Сб-Вс с 09:00 до 23:30 (до появления первых 3-5 скачавших)
 
Не забывайте говорить Спасибо. Не уходите с раздачи!   
Торрент: Зарегистрирован [25 дек 2016, 06:07] Для скачивания .torrent
необходима регистрация
Или скачать с помощью
MediaGet
Статус:
Проверен
 
.torrent скачан: 0 раз
Хэш: d3ac0b74ebc1dca7820ab14a68fbc0d6f968e168
Размер: 857.86 МБ (899 530 752 байт)
Стать Автором раздачи
 
 
Раздал: 100 ГБ
Скачал: 0 байт
Ратио: Seed.
Сообщения: 92079
Зарегистрирован: 09 апр 2015, 22:31


  • Похожие торренты
    Ответы
    Просмотры
    Последнее сообщение

Вернуться в Флот

Ресурс не предоставляет электронные версии произведений, а занимается лишь коллекционированием и каталогизацией ссылок, присылаемых и публикуемых на форуме нашими читателями. Если вы являетесь правообладателем какого-либо представленного материала и не желаете чтобы ссылка на него находилась в нашем каталоге, свяжитесь с нами и мы незамедлительно удалим её. Файлы для обмена на трекере предоставлены пользователями сайта, и администрация не несёт ответственности за их содержание. Просьба не заливать файлы, защищенные авторскими правами, а также файлы нелегального содержания!
cron