Нацистские тайны Второй мировой (2 серии из 6) / Nazi weird war two [2016, Документальный, война, история, SATRip]

 
 Статистика раздачи 
Размер: 1.23 ГБ   |  Зарегистрирован: 25 дек 2016, 02:29   |   .torrent скачан: 443 раз
Сидеров: 24  [ 0 байт/сек ]     Личеров: 0  [ 0 байт/сек ]  
  

Нацистские тайны Второй мировой (2 серии из 6) / Nazi weird war two [2016, Документальный, война, история, SATRip]

Сообщение aLaVodka » 25 дек 2016, 02:29

Нацистские тайны Второй мировой (2 серии из 6) / Nazi weird war two

Дата/Год выпуска: 2016
Страна: США, National Geographic
Жанр: Документальный, война, история
Продолжительность: 2 х ~ 00:43:58
Перевод: Одноголосый закадровый
Телеканал: National Geographic

Описание: Британский историк доктор Сэм Уиллис, и корейский исследователь Роберт Джо, объединили свои силы, чтобы разгадать добраться до истины и разгадать нацистские тайны Второй мировой войны.Когда речь идет о войне, правда часто бывает страннее чем вымысел. Истории о черной магии, супероружии, странных культах и необычных ритуалах.

Доп. информация: Авторство релиза - alf62
БОЛЬШОЕ СПАСИБО ПЕЧАЛЬ, за предоставленный постер!



качество: SATRip
формат: AVI
Видео: 720x400 (1.80:1), 25 fps, XviD build 73 ~1799 kbps avg, 0.25 bit/pixel
Аудио: 48 kHz, AC3 Dolby Digital, 2/0 (L,R) ch, ~192.00 kbps avg
1. Загадочный замок Гиммлера / Himmlers haunted castle
Март 1945 года. Последние дни нацистской Германии. Мир рейхсфюрера СС Генриха Гиммлера рушится на его глазах. Он отдает приказ разрушить старинный замок Вевельсбург, до того как его захватят Союзники.

2. Гитлеровские безумцы / Hitler's meth heads
Ходили слухи, что нацисты обладают секретным оружием. Они оказались правдой. Это было наркотическое лекарство первитин, которое позволяло солдатам сражаться с нечеловеческой выносливостью. К концу войны, немецкие солдаты пристрастились к опасному наркотику, чтобы выжить. Нацисты рискнули тысячами жизней в поисках вещества, которое превратит обычных людей в суперсолдат.
Код: Выделить всё
Нацистские.тайны.Второй.мировой.(1.серия).Загадочный.замок.Гиммлера.2016. XviD.SATRip.alf62.avi
Формат                                   : AVI
Формат/Информация                        : Audio Video Interleave
Размер файла                             : 629 Мбайт
Продолжительность                        : 43 м.
Общий поток                              : 2002 Кбит/сек
Программа кодирования                    : VirtualDubMod 1.5.10.3 | www.virtualdub-fr.org || (build 2550/release)
Библиотека кодирования                   : VirtualDubMod build 2550/release

Видео
Идентификатор                            : 0
Формат                                   : MPEG-4 Visual
Профиль формата                          : Advanced [email protected]
Параметр BVOP формата                    : 2
Параметр QPel формата                    : Нет
Параметр GMC формата                     : Без точки перехода
Параметр матрицы формата                 : Default (MPEG)
Идентификатор кодека                     : XVID
Идентификатор кодека/Подсказка           : XviD
Продолжительность                        : 43 м.
Битрейт                                  : 1800 Кбит/сек
Ширина                                   : 720 пикселей
Высота                                   : 400 пикселей
Соотношение сторон                       : 16:9
Частота кадров                           : 25,000 кадров/сек
Цветовое пространство                    : YUV
Субдискретизация насыщенности            : 4:2:0
Битовая глубина                          : 8 бит
Тип развёртки                            : Прогрессивная
Метод сжатия                             : С потерями
Бит/(Пиксели*Кадры)                      : 0.250
Размер потока                            : 566 Мбайт (90%)
Библиотека кодирования                   : XviD 73

Аудио
Идентификатор                            : 1
Формат                                   : AC-3
Формат/Информация                        : Audio Coding 3
Расширение режима                        : CM (complete main)
Параметр Endianness формата              : Big
Идентификатор кодека                     : 2000
Продолжительность                        : 43 м.
Вид битрейта                             : Постоянный
Битрейт                                  : 192 Кбит/сек
Каналы                                   : 2 канала
Расположение каналов                     : Front: L R
Частота                                  : 48,0 КГц
Битовая глубина                          : 16 бит
Метод сжатия                             : С потерями
Размер потока                            : 60,4 Мбайт (10%)
Выравнивание                             : Разделение по промежуткам
Продолжительность промежутка             : 40  мс. (1,00 видеокадр)
Время предзагрузки промежутка            : 500  мс.
Внимание! Раздача ведётся путём добавления новых серий
Внимание! Раздача ведётся путём добавления новых серий; при каждом добавлении создаётся новый торрент. Чтобы начать докачку новой серии, пользователям необходимо сделать следующее:
• Остановить скачивание.
• Удалить старый торрент у себя из клиента (старые серии удалять не надо).
• Скачать новый торрент и запустить его у себя в клиенте вместо старого, при этом указать клиенту путь в старую папку куда и должно происходить скачивание новых серий.
Ваш клиент при этом должен произвести хеширование (проверку) старой папки (если не производит сам - помогите ему сделать это), и будет докачивать только те серии которых у вас ещё нет. Старые серии при этом не удаляются, а продолжают раздаваться!
Eсли вы уже удалили старые серии, то предотвратить повторную закачку старых серий можно, отжав галочку в соответсвующих местах при запуске нового торрента. По возможности, желательно не удалять старые серии как можно дольше чтобы релизёр не столько продолжал раздавать старые серии, а смог сконцентрироваться на новых.


 
Не забывайте говорить Спасибо. Не уходите с раздачи!   
Торрент: Зарегистрирован [25 дек 2016, 02:29] Для скачивания .torrent
необходима регистрация
Или скачать с помощью
MediaGet
Статус:
Проверен
 
.torrent скачан: 443 раз
Хэш: a271aea4d1d643fefbb42c66842a881f3565cdcd
Размер: 1.23 ГБ (1 320 103 936 байт)
Стать Автором раздачи
 
 
Раздал: 100 ГБ
Скачал: 0 байт
Ратио: Seed.
Сообщения: 182341
Зарегистрирован: 09 апр 2015, 20:00


  • Похожие торренты
    Ответы
    Просмотры
    Последнее сообщение

Вернуться в Вторая мировая война

Кто сейчас на конференции

Сейчас эту тему просматривают: нет зарегистрированных пользователей и гости: 1

Ресурс не предоставляет электронные версии произведений, а занимается лишь коллекционированием и каталогизацией ссылок, присылаемых и публикуемых на форуме нашими читателями. Если вы являетесь правообладателем какого-либо представленного материала и не желаете чтобы ссылка на него находилась в нашем каталоге, свяжитесь с нами и мы незамедлительно удалим её. Файлы для обмена на трекере предоставлены пользователями сайта, и администрация не несёт ответственности за их содержание. Просьба не заливать файлы, защищенные авторскими правами, а также файлы нелегального содержания!