Битва экстрасенсов (2016.12.24) DVB (сезон 17, выпуск 17)

 
 Статистика раздачи 
Размер: 2.19 ГБ   |  Зарегистрирован: 24 дек 2016, 17:41   |   .torrent скачан: 1 раз
Сидеров: 1  [ 0 байт/сек ]     Личеров: 0  [ 0 байт/сек ]  
  

Битва экстрасенсов (2016.12.24) DVB (сезон 17, выпуск 17)

Сообщение explosiveone » 24 дек 2016, 17:41

Битва экстрасенсов (2016.12.24) DVB (сезон 17, выпуск 17)

Телекомпания: ТНТ
Жанр: Телепередача

Ведущий: Марат Башаров

Описание:
С 3 сентября на ТНТ стартует долгожданный 17-й сезон «Битвы экстрасенсов» — самого мистического, непредсказуемого и загадочного проекта российского ТВ. Масштабный кастинг, новые яркие участники и высокие технологии в мире экстрасенсорики. Новый сезон обещает стать самым необычным и удивительным в истории шоу. «Мне бы очень хотелось, чтобы в новом сезоне экстрасенсы поменьше обращали бы внимание на свою самореализацию, а больше помогали людям. Ведь каждый сезон к нам обращаются те, кто действительно ждет помощи. И это, по-моему, для людей со сверхспособностями должно быть приоритетным!», — Марат Башаров, ведущий проекта.


Возраст: 16+ (зрителям, достигшим 16 лет)

Продолжительность: 01:14:42
Качество видео: DVB

Видео: MPEG 2, 720x576, 3596 kb/s
Аудио: 48 kHz, MPEG Layer 2, 2 ch, ~192.00 kbps
Аудио: 48 kHz, MPEG Layer 2, 2 ch, ~192.00 kbps
Код: Общее
Идентификатор                            : 1 (0x1)
Полное имя                               : D:\Битва экстрасенсов. Сезон 17. Выпуск 17 (2016.12.24) DVB.ts
Формат                                   : MPEG-TS
Размер файла                             : 2,19 Гбайт
Продолжительность                        : 1 ч. 14 м.
Режим общего битрейта                    : Переменный
Общий поток                              : 4191 Кбит/сек

Видео
Идентификатор                            : 401 (0x191)
Идентификатор меню                       : 14 (0xE)
Формат                                   : MPEG Video
Версия формата                           : Version 2
Профиль формата                          : Main@Main
Параметр BVOP формата                    : Да
Параметр матрицы формата                 : Выборочная
Параметр GOP формата                     : Variable
Структура изображения                    : Frame
Идентификатор кодека                     : 2
Продолжительность                        : 1 ч. 14 м.
Вид битрейта                             : Переменный
Битрейт                                  : 3596 Кбит/сек
Максимальный битрейт                     : 15,0 Мбит/сек
Ширина                                   : 720 пикселей
Высота                                   : 576 пикселей
Соотношение сторон                       : 4:3
Частота кадров                           : 25,000 кадров/сек
Стандарт вещания                         : PAL
Цветовое пространство                    : YUV
Субдискретизация насыщенности            : 4:2:0
Битовая глубина                          : 8 бит
Тип развёртки                            : Чересстрочная
Порядок развёртки                        : Верхнее поле первое
Метод сжатия                             : С потерями
Бит/(Пиксели*Кадры)                      : 0.347
Временной код первого кадра              : 00:00:00:00
Оригинал временного кода                 : Group of pictures header
GOP, открыто/закрыто                     : Открыто
Размер потока                            : 1,88 Гбайт (86%)

Аудио #1
Идентификатор                            : 402 (0x192)
Идентификатор меню                       : 14 (0xE)
Формат                                   : MPEG Audio
Версия формата                           : Version 1
Профиль формата                          : Layer 2
Режим                                    : Dual mono
Расширение режима                        : MS Stereo
Идентификатор кодека                     : 3
Продолжительность                        : 1 ч. 14 м.
Вид битрейта                             : Постоянный
Битрейт                                  : 192 Кбит/сек
Каналы                                   : 2 канала
Частота                                  : 48,0 КГц
Метод сжатия                             : С потерями
Задержка видео                           : -13 мс.
Размер потока                            : 103 Мбайт (5%)
Язык                                     : Russian

Аудио #2
Идентификатор                            : 403 (0x193)
Идентификатор меню                       : 14 (0xE)
Формат                                   : MPEG Audio
Версия формата                           : Version 1
Профиль формата                          : Layer 2
Идентификатор кодека                     : 3
Продолжительность                        : 1 ч. 14 м.
Вид битрейта                             : Постоянный
Битрейт                                  : 192 Кбит/сек
Каналы                                   : 2 канала
Частота                                  : 48,0 КГц
Метод сжатия                             : С потерями
Задержка видео                           : -9 мс.
Размер потока                            : 103 Мбайт (5%)
Язык                                     : English


Скриншоты:

[/center]
Время раздачи: 24/7 (до появления первых 3-5 скачавших)
 
Не забывайте говорить Спасибо. Не уходите с раздачи!   
Торрент: Зарегистрирован [24 дек 2016, 17:41] Для скачивания .torrent
необходима регистрация
Или скачать с помощью
MediaGet
Статус:
Проверен
 
.torrent скачан: 1 раз
Хэш: df919fe8df8da3a5fc0c763eaf64222d41fc2382
Размер: 2.19 ГБ (2 348 096 124 байт)
Стать Автором раздачи
 
 
Раздал: 100 ГБ
Скачал: 0 байт
Ратио: Seed.
Сообщения: 90065
Зарегистрирован: 09 апр 2015, 22:31


Вернуться в Паранормальные явления

Ресурс не предоставляет электронные версии произведений, а занимается лишь коллекционированием и каталогизацией ссылок, присылаемых и публикуемых на форуме нашими читателями. Если вы являетесь правообладателем какого-либо представленного материала и не желаете чтобы ссылка на него находилась в нашем каталоге, свяжитесь с нами и мы незамедлительно удалим её. Файлы для обмена на трекере предоставлены пользователями сайта, и администрация не несёт ответственности за их содержание. Просьба не заливать файлы, защищенные авторскими правами, а также файлы нелегального содержания!
cron