Битва экстрасенсов (2016.12.24) SATRip (сезон 17, выпуск 17)

 
 Статистика раздачи 
Размер: 1010.53 МБ   |  Зарегистрирован: 24 дек 2016, 17:38   |   .torrent скачан: 2 раз
Сидеров: 1  [ 0 байт/сек ]     Личеров: 0  [ 0 байт/сек ]  
  

Битва экстрасенсов (2016.12.24) SATRip (сезон 17, выпуск 17)

Сообщение explosiveone » 24 дек 2016, 17:38

Битва экстрасенсов (2016.12.17) SATRip (сезон 17, выпуск 17)

Телекомпания: ТНТ
Жанр: Телепередача

Ведущий: Марат Башаров

Описание:
С 3 сентября на ТНТ стартует долгожданный 17-й сезон «Битвы экстрасенсов» — самого мистического, непредсказуемого и загадочного проекта российского ТВ. Масштабный кастинг, новые яркие участники и высокие технологии в мире экстрасенсорики. Новый сезон обещает стать самым необычным и удивительным в истории шоу. «Мне бы очень хотелось, чтобы в новом сезоне экстрасенсы поменьше обращали бы внимание на свою самореализацию, а больше помогали людям. Ведь каждый сезон к нам обращаются те, кто действительно ждет помощи. И это, по-моему, для людей со сверхспособностями должно быть приоритетным!», — Марат Башаров, ведущий проекта.


Возраст: 16+ (зрителям, достигшим 16 лет)

Продолжительность: 01:12:46
Качество видео: SATRip

Видео: XviD, 720x400, ~1799 kb/s
Аудио: MP3, 2 ch, 128 kb/s, CBR
Код: Общее
Полное имя                               : D:\Битва экстрасенсов. Сезон 17. Выпуск 17 (2016.12.24) SATRip.avi
Формат                                   : AVI
Формат/Информация                        : Audio Video Interleave
Размер файла                             : 1011 Мбайт
Продолжительность                        : 1 ч. 12 м.
Общий поток                              : 1938 Кбит/сек

Видео
Идентификатор                            : 0
Формат                                   : MPEG-4 Visual
Профиль формата                          : Advanced Simple@L5
Параметр BVOP формата                    : 2
Параметр QPel формата                    : Нет
Параметр GMC формата                     : Без точки перехода
Параметр матрицы формата                 : Default (H.263)
Идентификатор кодека                     : XVID
Идентификатор кодека/Подсказка           : XviD
Продолжительность                        : 1 ч. 12 м.
Битрейт                                  : 1799 Кбит/сек
Ширина                                   : 720 пикселей
Высота                                   : 400 пикселей
Соотношение сторон                       : 16:9
Частота кадров                           : 25,000 кадров/сек
Цветовое пространство                    : YUV
Субдискретизация насыщенности            : 4:2:0
Битовая глубина                          : 8 бит
Тип развёртки                            : Прогрессивная
Метод сжатия                             : С потерями
Бит/(Пиксели*Кадры)                      : 0.250
Размер потока                            : 889 Мбайт (93%)
Библиотека кодирования                   : XviD 1.2.1 (UTC 2008-12-04)

Аудио
Идентификатор                            : 1
Формат                                   : MPEG Audio
Версия формата                           : Version 1
Профиль формата                          : Layer 3
Режим                                    : Joint stereo
Расширение режима                        : MS Stereo
Идентификатор кодека                     : 55
Идентификатор кодека/Подсказка           : MP3
Продолжительность                        : 1 ч. 12 м.
Вид битрейта                             : Постоянный
Битрейт                                  : 128 Кбит/сек
Каналы                                   : 2 канала
Частота                                  : 48,0 КГц
Метод сжатия                             : С потерями
Размер потока                            : 63,3 Мбайт (7%)
Выравнивание                             : Соединение по промежуткам
Продолжительность промежутка             : 24  мс. (0,60 видеокадр)
Библиотека кодирования                   : LAME3.99r
Настройки программы                      : -m j -V 4 -q 9 -lowpass 17 -b 128


Скриншоты:

[/center]
Время раздачи: 24/7 (до появления первых 3-5 скачавших)
 
Не забывайте говорить Спасибо. Не уходите с раздачи!   
Торрент: Зарегистрирован [24 дек 2016, 17:38] Для скачивания .torrent
необходима регистрация
Или скачать с помощью
MediaGet
Статус:
Проверен
 
.torrent скачан: 2 раз
Хэш: 19781ae232ec5e49ce7287cce2848b96915a8a69
Размер: 1010.53 МБ (1 059 614 420 байт)
Стать Автором раздачи
 
 
Раздал: 100 ГБ
Скачал: 0 байт
Ратио: Seed.
Сообщения: 83360
Зарегистрирован: 09 апр 2015, 22:31


  • Похожие торренты
    Ответы
    Просмотры
    Последнее сообщение

Вернуться в Паранормальные явления

Кто сейчас на конференции

Сейчас эту тему просматривают: нет зарегистрированных пользователей и гости: 1

Ресурс не предоставляет электронные версии произведений, а занимается лишь коллекционированием и каталогизацией ссылок, присылаемых и публикуемых на форуме нашими читателями. Если вы являетесь правообладателем какого-либо представленного материала и не желаете чтобы ссылка на него находилась в нашем каталоге, свяжитесь с нами и мы незамедлительно удалим её. Файлы для обмена на трекере предоставлены пользователями сайта, и администрация не несёт ответственности за их содержание. Просьба не заливать файлы, защищенные авторскими правами, а также файлы нелегального содержания!