Последний рейс "Андреа Дориа" / Last Voyage of the Andrea Doria (1996) DVB

 
 Статистика раздачи 
Размер: 493.84 МБ   |  Зарегистрирован: 24 дек 2016, 16:36   |   .torrent скачан: 0 раз
Сидеров: 1  [ 0 байт/сек ]     Личеров: 0  [ 0 байт/сек ]  
  

Последний рейс "Андреа Дориа" / Last Voyage of the Andrea Doria (1996) DVB

Сообщение explosiveone » 24 дек 2016, 16:36

Последний рейс "Андреа Дориа" / Last Voyage of the Andrea Doria (1996) DVB

Телекомпания: США / National Geographic
Жанр: Документальный, История

Участники: Уильям Хофнер, Генри Строжер

Описание:
В 1956 году лайнер «Андреа Дориа» в 101-ый раз пересекал Атлантику. По палубам прогуливалась богема того времени, а на капитанском мостике за правильным курсом следили лучшие моряки Италии. Однако июльским утром 1956 жители побережья Нантаки увидели страшную картину: огромный корабль лежал на боку и медленно погружался в воду. Как такое могло случиться с современным океанским лайнером? Как инженеры, выучившие урок «Титаника», смогли допустить ошибку? И что послужило причиной катастрофы: техническая неисправность или ошибка экипажа?



Продолжительность: 00:25:19
Качество видео: DVB
Перевод: Двухголосый закадровый, профессиональный

Видео: MPEG-2, 704х576, ~2478 kbps
Аудио: MP2, 2 ch, 192 Kbps, CBR
Код: Выделить всё
Общее
Полное имя                               : Last Voyage of the Andrea Doria.mpg
Формат                                   : MPEG-PS
Размер файла                             : 494 Мбайт
Продолжительность                        : 25 м.
Режим общего битрейта                    : Переменный
Общий поток                              : 2725 Кбит/сек

Видео
Идентификатор                            : 224 (0xE0)
Формат                                   : MPEG Video
Версия формата                           : Version 2
Профиль формата                          : Main@Main
Параметр BVOP формата                    : Нет
Параметр матрицы формата                 : Выборочная
Параметр GOP формата                     : Variable
Продолжительность                        : 25 м.
Вид битрейта                             : Переменный
Битрейт                                  : 2478 Кбит/сек
Максимальный битрейт                     : 6000 Кбит/сек
Ширина                                   : 704 пикселя
Высота                                   : 576 пикселей
Соотношение сторон                       : 4:3
Частота кадров                           : 25,000 кадров/сек
Стандарт вещания                         : PAL
Цветовое пространство                    : YUV
Субдискретизация насыщенности            : 4:2:0
Битовая глубина                          : 8 бит
Тип развёртки                            : Чересстрочная
Порядок развёртки                        : Верхнее поле первое
Метод сжатия                             : С потерями
Бит/(Пиксели*Кадры)                      : 0.244
Временной код первого кадра              : 00:00:00:00
Оригинал временного кода                 : Group of pictures header
Размер потока                            : 449 Мбайт (91%)

Аудио
Идентификатор                            : 192 (0xC0)
Формат                                   : MPEG Audio
Версия формата                           : Version 1
Профиль формата                          : Layer 2
Продолжительность                        : 25 м.
Вид битрейта                             : Постоянный
Битрейт                                  : 192 Кбит/сек
Каналы                                   : 2 канала
Частота                                  : 48,0 КГц
Метод сжатия                             : С потерями
Размер потока                            : 34,8 Мбайт (7%)

Меню

Скриншоты:




Время раздачи: Пн-Пт с 18:00 до 22:00 (до появления первых 3-5 скачавших)
 
Не забывайте говорить Спасибо. Не уходите с раздачи!   
Торрент: Зарегистрирован [24 дек 2016, 16:36] Для скачивания .torrent
необходима регистрация
Или скачать с помощью
MediaGet
Статус:
Проверен
 
.torrent скачан: 0 раз
Хэш: 76eaf2a607efd1138282055dd0224c084324b3d2
Размер: 493.84 МБ (517 828 608 байт)
Стать Автором раздачи
 
 
Раздал: 100 ГБ
Скачал: 0 байт
Ратио: Seed.
Сообщения: 82288
Зарегистрирован: 09 апр 2015, 22:31


  • Похожие торренты
    Ответы
    Просмотры
    Последнее сообщение

Вернуться в National Geographic

Кто сейчас на конференции

Сейчас эту тему просматривают: нет зарегистрированных пользователей и гости: 1

Ресурс не предоставляет электронные версии произведений, а занимается лишь коллекционированием и каталогизацией ссылок, присылаемых и публикуемых на форуме нашими читателями. Если вы являетесь правообладателем какого-либо представленного материала и не желаете чтобы ссылка на него находилась в нашем каталоге, свяжитесь с нами и мы незамедлительно удалим её. Файлы для обмена на трекере предоставлены пользователями сайта, и администрация не несёт ответственности за их содержание. Просьба не заливать файлы, защищенные авторскими правами, а также файлы нелегального содержания!