Сделано в СССР. Новый год из детства (2016) IPTVRip

 
 Статистика раздачи 
Размер: 311.2 МБ   |  Зарегистрирован: 24 дек 2016, 15:30   |   .torrent скачан: 0 раз
Сидеров: 1  [ 0 байт/сек ]     Личеров: 0  [ 0 байт/сек ]  
  

Сделано в СССР. Новый год из детства (2016) IPTVRip

Сообщение explosiveone » 24 дек 2016, 15:30

Сделано в СССР. Новый год из детства (2016) IPTVRip

Телекомпания: МИР
Жанр: Документальный

Описание:
1917–1991 – это не просто промежуток времени, а целая эпоха со своими особенностями, научными открытиями, спортивными достижениями, культурными феноменами. Эта эпоха оставила наследство, которое до сих пор интересно и актуально. Кто-то все еще ностальгирует по своему советскому детству, проведенному в пионерлагере. У кого-то дома хранятся коллекции марок с Гагариным, фарфоровые комсомольцы и подшивки журнала «Крокодил». Иные пересматривают жизнерадостные комедии тридцатых с Любовью Орловой и послевоенные сказки Александра Роу. Каждый найдет для себя в советской эпохе что-нибудь любопытное и увлекательное.
«Сделано в СССР» - это цикл документальных программ, посвященных советской эстетике и культуре, повседневному быту людей и закулисной жизни кумиров, высокому искусству и скоротечным модам.

Релиз от: Печаль
Продолжительность: ~ 00:23:40
Качество видео: IPTVRip
Субтитры: Отсутствуют

Видео: MPEG4, XviD, 720x400 (16:9), 25.000 fps, 1 700 Kbps (0.236 bit/pixel)
Аудио: MP3, 48.0 KHz, 2 ch, 128 Kbps, CBR
Код:  Общее
Полное имя                               : D:\[1]\Сделано в СССР\Сделано в СССР. Новый год из детства (2016).avi
Формат                                   : AVI
Формат/Информация                        : Audio Video Interleave
Размер файла                             : 311 Мбайт
Продолжительность                        : 23 м.
Общий поток                              : 1837 Кбит/сек
Программа кодирования                    : VirtualDubMod 1.5.10.3 | www.virtualdub-fr.org || (build 2550/release)
Библиотека кодирования                   : VirtualDubMod build 2550/release

Видео
Идентификатор                            : 0
Формат                                   : MPEG-4 Visual
Профиль формата                          : Advanced Simple@L5
Параметр BVOP формата                    : 2
Параметр QPel формата                    : Нет
Параметр GMC формата                     : Без точки перехода
Параметр матрицы формата                 : Default (H.263)
Идентификатор кодека                     : XVID
Идентификатор кодека/Подсказка           : XviD
Продолжительность                        : 23 м.
Битрейт                                  : 1700 Кбит/сек
Ширина                                   : 720 пикселей
Высота                                   : 400 пикселей
Соотношение сторон                       : 16:9
Частота кадров                           : 25,000 кадров/сек
Цветовое пространство                    : YUV
Субдискретизация насыщенности            : 4:2:0
Битовая глубина                          : 8 бит
Тип развёртки                            : Прогрессивная
Метод сжатия                             : С потерями
Бит/(Пиксели*Кадры)                      : 0.236
Размер потока                            : 288 Мбайт (93%)
Библиотека кодирования                   : XviD 73

Аудио
Идентификатор                            : 1
Формат                                   : MPEG Audio
Версия формата                           : Version 1
Профиль формата                          : Layer 3
Идентификатор кодека                     : 55
Идентификатор кодека/Подсказка           : MP3
Продолжительность                        : 23 м.
Вид битрейта                             : Постоянный
Битрейт                                  : 128 Кбит/сек
Каналы                                   : 2 канала
Частота                                  : 48,0 КГц
Метод сжатия                             : С потерями
Размер потока                            : 21,7 Мбайт (7%)
Выравнивание                             : Соединение по промежуткам
Продолжительность промежутка             : 40  мс. (1,00 видеокадр)
Время предзагрузки промежутка            : 504  мс.
Библиотека кодирования                   : LAME3.99r
Настройки программы                      : -m s -V 4 -q 2 -lowpass 17 -b 128
 
Наверное, именно потому, что Новый год был в СССР самым общим праздником, люди старшего поколения до сих пор вспоминают о нем с ностальгией. Готовиться к празднику нужно было загодя. Во-первых, закупить продукты – то есть, «достать», выстоять в часовых очередях, получить в продуктовых заказах шпроты, икру, копченую колбасу. Москвичи получали продуктовые заказы с деликатесами, а приезжие стремились в столицу за чем-нибудь вкусненьким. Поскольку елки для продажи выращивались специально, они тоже были относительным дефицитом, и потому покупались при первой возможности, а не в удобное время. Обычной картиной, например, в Москве были люди, которые за полторы-две недели до Нового года везли в метро перевязанные бечевкой елки, купленные по случаю. Ёлки хранились подвешенными за окном или на том же балконе. Те, кто во времена позднего застоя был школьником, хорошо помнит радостное предчувствие, наполнявшее предновогодние дни.

Скриншоты:



Время раздачи: 24/7. До первых 5 скачавших.
 
Не забывайте говорить Спасибо. Не уходите с раздачи!   
Торрент: Зарегистрирован [24 дек 2016, 15:30] Для скачивания .torrent
необходима регистрация
Или скачать с помощью
MediaGet
Статус:
Проверен
 
.torrent скачан: 0 раз
Хэш: a4f7cc2e88a8fe654eb46586887c9016174c867e
Размер: 311.2 МБ (326 318 080 байт)
Стать Автором раздачи
 
 
Раздал: 100 ГБ
Скачал: 0 байт
Ратио: Seed.
Сообщения: 90066
Зарегистрирован: 09 апр 2015, 22:31


Вернуться в Эпоха СССР (видео)

Ресурс не предоставляет электронные версии произведений, а занимается лишь коллекционированием и каталогизацией ссылок, присылаемых и публикуемых на форуме нашими читателями. Если вы являетесь правообладателем какого-либо представленного материала и не желаете чтобы ссылка на него находилась в нашем каталоге, свяжитесь с нами и мы незамедлительно удалим её. Файлы для обмена на трекере предоставлены пользователями сайта, и администрация не несёт ответственности за их содержание. Просьба не заливать файлы, защищенные авторскими правами, а также файлы нелегального содержания!
cron