Проводник (2016.12.23) SATRip (Сочи)

 
 Статистика раздачи 
Размер: 658.94 МБ   |  Зарегистрирован: 24 дек 2016, 15:29   |   .torrent скачан: 1 раз
Сидеров: 1  [ 0 байт/сек ]     Личеров: 0  [ 0 байт/сек ]  
  

Проводник (2016.12.23) SATRip (Сочи)

Сообщение explosiveone » 24 дек 2016, 15:29

Проводник (2016.12.23) SATRip (Сочи)

Телекомпания: Пятница
Жанр: ТВ-Шоу, Путешествия

Ведущие: Андрей Бедняков
Проводник:

Описание:
На этот раз Андрей Бедняков отправляется вместе с самыми любимыми российскими звёздами в их родные края. Он объедет всю страну вдоль и поперек. Бородатый ведущий из первых уст узнает все о городах, в которых звезды нашего шоу-бизнеса родились и выросли. Где случился их первый поцелуй, как звали любимую учительницу и из-за кого пролились их первые слезы неразделенной любви. Герои программы сами расскажут о себе все самое сокровенное, интересное и неожиданное.

Продолжительность: 00:47:30
Качество видео: SATRip
Субтитры: Отсутствуют

Видео: xvid, 720x400 (16:9), 25.000 fps, 1 798 Kbps (0.250 bit/pixel)
Аудио: MP3, 48.0 KHz, 2 ch, 128 Kbps, CBR
Код:  Общее
Полное имя                               : D:\[1]\Проводник\Проводник. Сочи (2016.12.23).avi
Формат                                   : AVI
Формат/Информация                        : Audio Video Interleave
Размер файла                             : 659 Мбайт
Продолжительность                        : 47 м.
Общий поток                              : 1939 Кбит/сек
Программа кодирования                    : Lavf54.63.104

Видео
Идентификатор                            : 0
Формат                                   : xvid
Идентификатор кодека                     : xvid
Продолжительность                        : 47 м.
Битрейт                                  : 1798 Кбит/сек
Ширина                                   : 720 пикселей
Высота                                   : 400 пикселей
Соотношение сторон                       : 16:9
Частота кадров                           : 25,000 кадров/сек
Бит/(Пиксели*Кадры)                      : 0.250
Размер потока                            : 611 Мбайт (93%)

Аудио
Идентификатор                            : 1
Формат                                   : MPEG Audio
Версия формата                           : Version 1
Профиль формата                          : Layer 3
Режим                                    : Joint stereo
Расширение режима                        : MS Stereo
Идентификатор кодека                     : 55
Идентификатор кодека/Подсказка           : MP3
Продолжительность                        : 47 м.
Вид битрейта                             : Постоянный
Битрейт                                  : 128 Кбит/сек
Каналы                                   : 2 канала
Частота                                  : 48,0 КГц
Метод сжатия                             : С потерями
Размер потока                            : 43,5 Мбайт (7%)
Выравнивание                             : Соединение по промежуткам
Продолжительность промежутка             : 24  мс. (0,60 видеокадр)
Библиотека кодирования                   : LAME3.99.5
 

Скриншоты:



Время раздачи: 24/7. До первых 5 скачавших.
 
Не забывайте говорить Спасибо. Не уходите с раздачи!   
Торрент: Зарегистрирован [24 дек 2016, 15:29] Для скачивания .torrent
необходима регистрация
Или скачать с помощью
MediaGet
Статус:
Проверен
 
.torrent скачан: 1 раз
Хэш: 793c86f5b3b305c638e5ffd09979dcbb113a0a73
Размер: 658.94 МБ (690 947 878 байт)
Стать Автором раздачи
 
 
Раздал: 100 ГБ
Скачал: 0 байт
Ратио: Seed.
Сообщения: 82670
Зарегистрирован: 09 апр 2015, 22:31


  • Похожие торренты
    Ответы
    Просмотры
    Последнее сообщение

Вернуться в Путешествия и туризм (видео)

Кто сейчас на конференции

Сейчас эту тему просматривают: нет зарегистрированных пользователей и гости: 1

Ресурс не предоставляет электронные версии произведений, а занимается лишь коллекционированием и каталогизацией ссылок, присылаемых и публикуемых на форуме нашими читателями. Если вы являетесь правообладателем какого-либо представленного материала и не желаете чтобы ссылка на него находилась в нашем каталоге, свяжитесь с нами и мы незамедлительно удалим её. Файлы для обмена на трекере предоставлены пользователями сайта, и администрация не несёт ответственности за их содержание. Просьба не заливать файлы, защищенные авторскими правами, а также файлы нелегального содержания!