Смертельный улов (12й сезон) / Deadliest Catch (12th season) [2016, документальный, HDTV 1080i]

 
 Статистика раздачи 
Размер: 51.56 ГБ   |  Зарегистрирован: 24 дек 2016, 13:03   |   .torrent скачан: 0 раз
Сидеров: 7  [ 0 байт/сек ]     Личеров: 2  [ 0 байт/сек ]  
  

Смертельный улов (12й сезон) / Deadliest Catch (12th season) [2016, документальный, HDTV 1080i]

Сообщение aLaVodka » 24 дек 2016, 13:03

Смертельный улов (12й сезон) / Deadliest Catch (12th season)

Год выпуска: 2016
Страна: США
Жанр: документальный
Продолжительность: ~00:45:00
Перевод: Одноголосый закадровый
Русские субтитры: нет

Описание: Реалити-шоу, снимаемое каналом Discovery с 2005 года. Шоу показывает реальную жизнь на рыболовецких судах,
ведущих промысел краба в Беринговом море. Название сериала происходит от присущего высокого риска ведения промысла краба в
холодном и неспокойном море. Премьера Смертельного улова состоялась 12 апреля 2005 года на канале Discovery, на данный момент
съемки сериала продолжаются, а сериал показывается по телевидению более чем 150 странах мира. (Источник: Википедия)

24.12.2016 торрент был обновлен (добавлены 1,9 и 18я серии). 18я серия - последняя серия в этом сезоне.
Данные серии добавлены в формате качестве 720p, т.к. в 1080 в сети найти не удалось. Если по дискавери будет повтор, серии будут заменены.
Линк на первоисточник: с http://rutor.is/torrent/529540

Тип релиза: HDTV 1080i
Контейнер: TS

Видео: AVC, 1920x1080i, 16:9, 8379 Кбит/сек, 25 кадров/сек
Аудио: Russian, AC-3, 6 каналов, 384 Кбит/сек
Аудио 2: English, AC-3, 6 каналов, 384 Кбит/сек
01 Лови момент
02 Новички
03 Ничего хорошего
04 Шведские близнецы
05 Ставка в миллион долларов
06 100%-й травматизм
07 Холодная война
08 Зима наступает
09 Навстречу буре
10 Испытательный полигон
11 Без компромиссов
12 Справедливая расплата
13 Пожар на море 1я часть
14 Пожар на море 2я часть
15 Кровь и кишки
16 Жизнь или смертельное решение
17 Вдоводел 1я часть
18 Вдоводел 2я часть
Общее
Идентификатор : 1 (0x1)
Полное имя : M:\Video\Doc\Deadliest catch\Deadliest catch season 12\12_02 Новички.ts
Формат : MPEG-TS
Размер файла : 2,58 Гбайт
Продолжительность : 43 м.
Режим общего битрейта : Переменный
Общий поток : 8379 Кбит/сек

Видео
Идентификатор : 325 (0x145)
Идентификатор меню : 1 (0x1)
Формат : AVC
Формат/Информация : Advanced Video Codec
Профиль формата : [email protected]
Параметр CABAC формата : Да
Параметр ReFrames формата : 4 кадра
Идентификатор кодека : 27
Продолжительность : 43 м.
Битрейт : 7189 Кбит/сек
Ширина : 1920 пикселей
Высота : 1080 пикселей
Соотношение сторон : 16:9
Частота кадров : 25,000 кадров/сек
Стандарт вещания : Component
Цветовое пространство : YUV
Субдискретизация насыщенности : 4:2:0
Битовая глубина : 8 бит
Тип развёртки : Чересстрочная
Метод сохранения типа развёртки : Раздельные поля
Порядок развёртки : Верхнее поле первое
Бит/(Пиксели*Кадры) : 0.139
Размер потока : 2,21 Гбайт (86%)
Цветовой диапазон : Limited
Основные цвета : BT.709
Характеристики трансфера : BT.709
Коэффициенты матрицы : BT.709

Аудио #1
Идентификатор : 405 (0x195)
Идентификатор меню : 1 (0x1)
Формат : AC-3
Формат/Информация : Audio Coding 3
Расширение режима : CM (complete main)
Параметр Endianness формата : Big
Идентификатор кодека : 6
Продолжительность : 43 м.
Вид битрейта : Постоянный
Битрейт : 384 Кбит/сек
Каналы : 6 каналов
Расположение каналов : Front: L C R, Side: L R, LFE
Частота : 48,0 КГц
Частота кадров : 31,250 кадров/сек (1536 spf)
Метод сжатия : С потерями
Размер потока : 121 Мбайт (5%)
Язык : Russian

Аудио #2
Идентификатор : 425 (0x1A9)
Идентификатор меню : 1 (0x1)
Формат : AC-3
Формат/Информация : Audio Coding 3
Расширение режима : CM (complete main)
Параметр Endianness формата : Big
Идентификатор кодека : 6
Продолжительность : 43 м.
Вид битрейта : Постоянный
Битрейт : 384 Кбит/сек
Каналы : 6 каналов
Расположение каналов : Front: L C R, Side: L R, LFE
Частота : 48,0 КГц
Частота кадров : 31,250 кадров/сек (1536 spf)
Метод сжатия : С потерями
Размер потока : 121 Мбайт (5%)
Язык : English
Сэмпл
 
Не забывайте говорить Спасибо. Не уходите с раздачи!   
Торрент: Зарегистрирован [24 дек 2016, 13:03] Для скачивания .torrent
необходима регистрация
Или скачать с помощью
MediaGet
Статус:
Проверен
 
.torrent скачан: 0 раз
Хэш: 3bc1b64f0c78944d317c8685f18415f1ed7db8e2
Размер: 51.56 ГБ (55 366 401 496 байт)
Стать Автором раздачи
 
 
Раздал: 100 ГБ
Скачал: 0 байт
Ратио: Seed.
Сообщения: 182341
Зарегистрирован: 09 апр 2015, 20:00


  • Похожие торренты
    Ответы
    Просмотры
    Последнее сообщение

Вернуться в BBC, Discovery, National Geographic (HD Video)

Кто сейчас на конференции

Сейчас эту тему просматривают: нет зарегистрированных пользователей и гости: 1

Ресурс не предоставляет электронные версии произведений, а занимается лишь коллекционированием и каталогизацией ссылок, присылаемых и публикуемых на форуме нашими читателями. Если вы являетесь правообладателем какого-либо представленного материала и не желаете чтобы ссылка на него находилась в нашем каталоге, свяжитесь с нами и мы незамедлительно удалим её. Файлы для обмена на трекере предоставлены пользователями сайта, и администрация не несёт ответственности за их содержание. Просьба не заливать файлы, защищенные авторскими правами, а также файлы нелегального содержания!