National Geographic: Прорыв (6 серий из 6) / Breakthrough (Рон Ховард / Ron Howard, Пауль Гиамати / Paul Giamatti) [2015, Документальный, научно-популярный, HDTV 1080i]

 
 Статистика раздачи 
Размер: 16.18 ГБ   |  Зарегистрирован: 24 дек 2016, 08:23   |   .torrent скачан: 38 раз
Сидеров: 10  [ 0 байт/сек ]     Личеров: 5  [ 0 байт/сек ]  
  

National Geographic: Прорыв (6 серий из 6) / Breakthrough (Рон Ховард / Ron Howard, Пауль Гиамати / Paul Giamatti) [2015, Документальный, научно-популярный, HDTV 1080i]

Сообщение aLaVodka » 24 дек 2016, 08:23

Прорыв / Breakthrough

Год выпуска: 2015
Страна: США
Студия: National Geographic Channel
Жанр: Документальный, научно-популярный
Продолжительность: 6х ~ 00:42:40
Перевод: Студийный (одноголосый закадровый)
Доп. инфо о переводе: Озвучено на студии "Веллес", текст читает Дмитрий Стрелков
Режиссер: Рон Ховард / Ron Howard, Пауль Гиаматти / Paul Giamatti, Бретт Ратнет / Brett Ratner, Акива Голдсман / Akiva Goldsman, Питер Берг / Peter Berg, Анджела Бассетт / Angela Bassett

Описание: Сериал покажет вам пробуждающую работу мысли и воображение перспективу научных открытий в реальном времени. В каждом эпизоде мы будем наблюдать за работой учёных и исследователей, работающих над передовыми проектами с огромным потенциалом: способные к трансформации приборы, решающие неотложные проблемы (как, например, разработка вакцины от вируса Эболы, поиски способа остановить эпилептические припадки или открытие нового метода сбора воды в африканской деревне, опустошённой из-за засухи). С учётом значимости этих историй, каждая серия этой передачи снята одним из лучших режиссёров. Рон Ховард, Бретт Ратнет, Пол Джаматти, Акива Голдсман, Анджела Бассетт и Питер Берг — вот первые шестеро. Помимо того, что сам научный прорыв на час захватывает ваше внимание, взгляд исследователей перед камерами и режиссёров — за кадром сливаются в уникальную линзу, через которую мы наблюдаем этот прорыв. Подобно фильму «30 событий за 30 лет» телесети EXPN, режиссёры Прорыва имели желание и возможности привносить свою стилистику в каждую серию.

Сэмпл: https://www.sendspace.com/file/oy9meu



Тип релиза: HDTV 1080i
Контейнер: TS

Видео: 1920x1080 (16:9), 25 fps, AVC (x264), High@L4.0, 7288-7862 kbps, 25fps, 0.152 bit/pixel
Аудио: Русский 48.0 KHz, AC3 6 ch (Front: L C R, Side: L R, LFE) ch, ~448.00 kbps avg
Аудио 2: Английский 48.0 KHz, AC3 6 ch (Front: L C R, Side: L R, LFE) ch, ~448.00 kbps avg
Код: Выделить всё
General
ID                          : 1 (0x1)
Complete name               : D:\Торренты\Фильмы\Документальные\Прорыв\02. Больше чем человек.ts
Format                      : MPEG-TS
File size                   : 2.57 GiB
Duration                    : 42mn 40s
Overall bit rate mode       : Variable
Overall bit rate            : 8 619 Kbps

Video
ID                          : 302 (0x12E)
Menu ID                     : 26002 (0x6592)
Format                      : AVC
Format/Info                 : Advanced Video Codec
Format profile              : High@L4
Format settings, CABAC      : Yes
Format settings, ReFrames   : 4 frames
Codec ID                    : 27
Duration                    : 42mn 40s
Bit rate                    : 7 288 Kbps
Width                       : 1 920 pixels
Height                      : 1 080 pixels
Display aspect ratio        : 16:9
Frame rate                  : 25.000 fps
Standard                    : Component
Color space                 : YUV
Chroma subsampling          : 4:2:0
Bit depth                   : 8 bits
Scan type                   : Interlaced
Scan type, store method     : Separated fields
Scan order                  : Top Field First
Bits/(Pixel*Frame)          : 0.141
Stream size                 : 2.17 GiB (85%)
Color range                 : Limited
Color primaries             : BT.709
Transfer characteristics    : BT.709
Matrix coefficients         : BT.709

Audio #1
ID                          : 402 (0x192)
Menu ID                     : 26002 (0x6592)
Format                      : AC-3
Format/Info                 : Audio Coding 3
Mode extension              : CM (complete main)
Format settings, Endianness : Big
Codec ID                    : 6
Duration                    : 42mn 40s
Bit rate mode               : Constant
Bit rate                    : 448 Kbps
Channel(s)                  : 6 channels
Channel positions           : Front: L C R, Side: L R, LFE
Sampling rate               : 48.0 KHz
Frame rate                  : 31.250 fps (1536 spf)
Compression mode            : Lossy
Delay relative to video     : -120ms
Stream size                 : 137 MiB (5%)
Language                    : Russian

Audio #2
ID                          : 403 (0x193)
Menu ID                     : 26002 (0x6592)
Format                      : AC-3
Format/Info                 : Audio Coding 3
Mode extension              : CM (complete main)
Format settings, Endianness : Big
Codec ID                    : 6
Duration                    : 42mn 40s
Bit rate mode               : Constant
Bit rate                    : 448 Kbps
Channel(s)                  : 6 channels
Channel positions           : Front: L C R, Side: L R, LFE
Sampling rate               : 48.0 KHz
Frame rate                  : 31.250 fps (1536 spf)
Compression mode            : Lossy
Delay relative to video     : -120ms
Stream size                 : 137 MiB (5%)
Language                    : English

General
ID                          : 1 (0x1)
Complete name               : D:\Торренты\Фильмы\Документальные\Прорыв\04. Век старения.ts
Format                      : MPEG-TS
File size                   : 2.74 GiB
Duration                    : 42mn 35s
Overall bit rate mode       : Variable
Overall bit rate            : 9 223 Kbps

Video
ID                          : 302 (0x12E)
Menu ID                     : 26002 (0x6592)
Format                      : AVC
Format/Info                 : Advanced Video Codec
Format profile              : High@L4
Format settings, CABAC      : Yes
Format settings, ReFrames   : 4 frames
Codec ID                    : 27
Duration                    : 42mn 35s
Bit rate                    : 7 862 Kbps
Width                       : 1 920 pixels
Height                      : 1 080 pixels
Display aspect ratio        : 16:9
Frame rate                  : 25.000 fps
Standard                    : Component
Color space                 : YUV
Chroma subsampling          : 4:2:0
Bit depth                   : 8 bits
Scan type                   : Interlaced
Scan type, store method     : Separated fields
Scan order                  : Top Field First
Bits/(Pixel*Frame)          : 0.152
Stream size                 : 2.34 GiB (85%)
Color range                 : Limited
Color primaries             : BT.709
Transfer characteristics    : BT.709
Matrix coefficients         : BT.709

Audio #1
ID                          : 402 (0x192)
Menu ID                     : 26002 (0x6592)
Format                      : AC-3
Format/Info                 : Audio Coding 3
Mode extension              : CM (complete main)
Format settings, Endianness : Big
Codec ID                    : 6
Duration                    : 42mn 35s
Bit rate mode               : Constant
Bit rate                    : 448 Kbps
Channel(s)                  : 6 channels
Channel positions           : Front: L C R, Side: L R, LFE
Sampling rate               : 48.0 KHz
Frame rate                  : 31.250 fps (1536 spf)
Compression mode            : Lossy
Delay relative to video     : -80ms
Stream size                 : 136 MiB (5%)
Language                    : Russian

Audio #2
ID                          : 403 (0x193)
Menu ID                     : 26002 (0x6592)
Format                      : AC-3
Format/Info                 : Audio Coding 3
Mode extension              : CM (complete main)
Format settings, Endianness : Big
Codec ID                    : 6
Duration                    : 42mn 35s
Bit rate mode               : Constant
Bit rate                    : 448 Kbps
Channel(s)                  : 6 channels
Channel positions           : Front: L C R, Side: L R, LFE
Sampling rate               : 48.0 KHz
Frame rate                  : 31.250 fps (1536 spf)
Compression mode            : Lossy
Delay relative to video     : -80ms
Stream size                 : 136 MiB (5%)
Language                    : English
1. Борьба с пандемиями / Fighting Pamdemics
Новые технологии, разработанные учёными и экспертами в области медицины, в ближайшем будущем помогут найти лекарства от разных вирусов пандемии.
2. Больше чем человек / More Than Human
Революционные прорывы в биологии и технологиях делают нас сильнее, быстрее и умнее. Сможет ли слияние двух этих сфер сделать нас сверхлюдьми?
3. Мозг: последний рубеж / Decoding the Brain
Человеческий мозг известен, как самый сложный объект во Вселенной. Новые технологии позволяют узнавать всё больше о том, как он работает.
4. Век старения / The Age of Aging
Группа ведущих учёных считает, что они нашли то, что поможет замедлить процесс старения.
5. Энергия на грани / Energy on the Edge
Новое поколение изобретателей и предпринимателей находится в поиске инноваций, касающихся альтернативных видов топлива.
6. Водный Апокалипсис / Water Apocalypse
Воды всё меньше и меньше. Учёные и инженеры всего мира бьются над решением этой глобальной проблемы.
Раздача ведётся путём добавления новых серий; при каждом добавлении создаётся новый торрент. Чтобы начать докачку новой серии, пользователям необходимо сделать следующее:

- Остановить скачивание.
- Удалить старый торрент у себя из клиента (старые серии удалять не надо).
- Скачать новый торрент и запустить его у себя в клиенте вместо старого, при этом указать клиенту путь в старую папку куда и должно происходить скачивание новых серий.


 
Не забывайте говорить Спасибо. Не уходите с раздачи!   
Торрент: Зарегистрирован [24 дек 2016, 08:23] Для скачивания .torrent
необходима регистрация
Или скачать с помощью
MediaGet
Статус:
Проверен
 
.torrent скачан: 38 раз
Хэш: d6df77dc4d8138ccf05f954e80b1c9ad05057bb4
Размер: 16.18 ГБ (17 371 906 128 байт)
Стать Автором раздачи
 
 
Раздал: 100 ГБ
Скачал: 0 байт
Ратио: Seed.
Сообщения: 185088
Зарегистрирован: 09 апр 2015, 20:00


  • Похожие торренты
    Ответы
    Просмотры
    Последнее сообщение

Вернуться в BBC, Discovery, National Geographic (HD Video)

Кто сейчас на конференции

Сейчас эту тему просматривают: нет зарегистрированных пользователей и гости: 1

Ресурс не предоставляет электронные версии произведений, а занимается лишь коллекционированием и каталогизацией ссылок, присылаемых и публикуемых на форуме нашими читателями. Если вы являетесь правообладателем какого-либо представленного материала и не желаете чтобы ссылка на него находилась в нашем каталоге, свяжитесь с нами и мы незамедлительно удалим её. Файлы для обмена на трекере предоставлены пользователями сайта, и администрация не несёт ответственности за их содержание. Просьба не заливать файлы, защищенные авторскими правами, а также файлы нелегального содержания!