Поезд в Пусан / Последний экспресс / Busanhaeng / Train to Busan (Ён Сан Хо / Yeon Sang Ho) [2016, Южная Корея, ужасы, боевик, триллер, BDRip] Dub

 
 Статистика раздачи 
Размер: 1.46 ГБ   |  Зарегистрирован: 24 дек 2016, 02:11   |   .torrent скачан: 2 раз
Сидеров: 34  [ 0 байт/сек ]     Личеров: 11  [ 0 байт/сек ]  
  

Поезд в Пусан / Последний экспресс / Busanhaeng / Train to Busan (Ён Сан Хо / Yeon Sang Ho) [2016, Южная Корея, ужасы, боевик, триллер, BDRip] Dub

Сообщение aLaVodka » 24 дек 2016, 02:11

Поезд в Пусан / Последний экспресс / Busanhaeng / Train to Busan

Страна: Южная Корея
Жанр: ужасы, боевик, триллер
Год выпуска: 2016
Продолжительность: 01:58:08

Перевод: Профессиональный (дублированный) (iTunes)
Оригинальная аудиодорожка: нет
Субтитры: нет

Режиссер: Ён Сан Хо / Yeon Sang Ho

В ролях: Кон Ю, Ма Дон-сок, Чон Ю-ми, Ким Су-ан, Ким И-сон, Чхве У-щик, Ан Со-хи, Ким Чхан-хван, Чан Хёк-чин, Чон Сок-ён

Описание: Из-за загадочных вспышек вируса объявлено чрезвычайное положение. Скоростной поезд-экспресс в Пусан стал временным убежищем для тех, кто смог вырваться из охваченного загадочной эпидемией Сеула. Случайные пассажиры не предполагали, что их билет на этот поезд станет счастливым, но вот надолго ли — добро пожаловать на борт и постарайтесь остаться в живых.

Качество: BDRip (исходник - BDRemux|Train.to.Busan.2016.KOREAN.1080p.BluRay.REMUX.AVC.DTS-HD.MA.5.1-FGT)
Формат видео: AVI

Видео: XviD, 720x384 (1.85:1), 23,976 fps, ~1566 kbps, 0.236 bit/pixel
Аудио: 48 kHz, AC3 Dolby Digital, 2/0 (L,R) ch ~192 kbps
File size : 1.46 GiB
Duration : 1h 58 min
Overall bit rate : 1 768 kb/s
Movie name : Поезд в Пусан / Traіn to Busan (2016) :: AFM ::
Writing application : VirtualDubMod 1.5.10.3 | www.virtualdub-fr.org || (build 2550/release)
Writing library : VirtualDubMod build 2550/release

Video
ID : 0
Format : MPEG-4 Visual
Format profile : Advanced Simple@L5
Format settings, BVOP : 1
Format settings, QPel : No
Format settings, GMC : No warppoints
Format settings, Matrix : Custom
Codec ID : XVID
Codec ID/Hint : XviD
Duration : 1h 58 min
Bit rate : 1 566 kb/s
Width : 720 pixels
Height : 384 pixels
Display aspect ratio : 1.85:1
Frame rate : 23.976 (23976/1000) FPS
Color space : YUV
Chroma subsampling : 4:2:0
Bit depth : 8 bits
Scan type : Progressive
Compression mode : Lossy
Bits/(Pixel*Frame) : 0.236
Stream size : 1.29 GiB (89%)
Writing library : XviD 73

Audio
ID : 1
Format : AC-3
Format/Info : Audio Coding 3
Mode extension : CM (complete main)
Format settings, Endianness : Big
Codec ID : 2000
Duration : 1h 58 min
Bit rate mode : Constant
Bit rate : 192 kb/s
Channel(s) : 2 channels
Channel positions : Front: L R
Sampling rate : 48.0 kHz
Frame rate : 31.250 FPS (1536 spf)
Compression mode : Lossy
Stream size : 162 MiB (11%)
Alignment : Split accross interleaves
Interleave, duration : 42 ms (1.00 video frame)
Interleave, preload duration : 500 ms
Торрент перезалит - замена на BDRip + дубляж iTunes
 
Не забывайте говорить Спасибо. Не уходите с раздачи!   
Торрент: Зарегистрирован [24 дек 2016, 02:11] Для скачивания .torrent
необходима регистрация
Или скачать с помощью
MediaGet
Статус:
Проверен
 
.torrent скачан: 2 раз
Хэш: 2c1884dd31ba77833e695704fe961b805deccc63
Размер: 1.46 ГБ (1 566 035 968 байт)
Стать Автором раздачи
 
 
Раздал: 100 ГБ
Скачал: 0 байт
Ратио: Seed.
Сообщения: 187121
Зарегистрирован: 09 апр 2015, 20:00


  • Похожие торренты
    Ответы
    Просмотры
    Последнее сообщение

Вернуться в Азиатские фильмы

Кто сейчас на конференции

Сейчас эту тему просматривают: нет зарегистрированных пользователей и гости: 1

Ресурс не предоставляет электронные версии произведений, а занимается лишь коллекционированием и каталогизацией ссылок, присылаемых и публикуемых на форуме нашими читателями. Если вы являетесь правообладателем какого-либо представленного материала и не желаете чтобы ссылка на него находилась в нашем каталоге, свяжитесь с нами и мы незамедлительно удалим её. Файлы для обмена на трекере предоставлены пользователями сайта, и администрация не несёт ответственности за их содержание. Просьба не заливать файлы, защищенные авторскими правами, а также файлы нелегального содержания!