Валерий Чкалов (2004) DVB (Серии 1-4 из 4)

 
 Статистика раздачи 
Размер: 1.76 ГБ   |  Зарегистрирован: 23 дек 2016, 17:28   |   .torrent скачан: 0 раз
Сидеров: 1  [ 0 байт/сек ]     Личеров: 0  [ 0 байт/сек ]  
  

Валерий Чкалов (2004) DVB (Серии 1-4 из 4)

Сообщение explosiveone » 23 дек 2016, 17:28

Валерий Чкалов (2004) DVB

Телекомпания: Россия, ТВ Центр
Жанр: Документальный, Биография, История

Участники: Автор и режиссер: Михаил Дегтярь, Эдуард Дубровский

Описание:
Авторы (М.Дегтярь и Э.Дубровский) сумели миновать две в равной степени соблазнительные крайности: повторить расхожие мифы, в которых летчик представлен эдаким бронзовым монументом, или же, напротив, в духе модного нынче низвержения кумиров рассказать о нем множество мелких бытовых гадостей, приземляющих и унижающих образ этого удивительного человека. В этом фильме Чкалов, как настоящая яркая и масштабная личность, полон противоречий. Он отчаянно храбр и вместе с тем расчетлив. Не любит оков дисциплины и безоговорочно трогательно подчиняется жене. Тайком венчается в церкви и произносит речи во славу партии большевиков... При такой противоречивости человеческих качеств легко было потерять то главное, что делает фигуру Чкалова цельной. Авторы тщательно проследили историю его жизни - с детства, прошедшего в деревеньке на берегу Волги, до того, как на героя обрушилась всемирная слава, от которой у любого могла закружиться голова.

Продолжительность: ~00:26:00 (одна серия)
Качество видео: DVB

Видео: AVC/H.264, 704х576@768x576, ~2155 kb/s
Аудио: MP2, 2 ch, 128 kb/s, CBR
Код: Выделить всё
Общее
Идентификатор                            : 16 (0x10)
Полное имя                               : 02_Валерий Чкалов_Дистанция смерти.ts
Формат                                   : MPEG-TS
Размер файла                             : 446 Мбайт
Продолжительность                        : 25 м.
Режим общего битрейта                    : Переменный
Общий поток                              : 2403 Кбит/сек

Видео
Идентификатор                            : 1425 (0x591)
Идентификатор меню                       : 425 (0x1A9)
Формат                                   : AVC
Формат/Информация                        : Advanced Video Codec
Профиль формата                          :
Параметр CABAC формата                   : Да
Параметр ReFrames формата                : 3 кадра
Идентификатор кодека                     : 27
Продолжительность                        : 25 м.
Битрейт                                  : 2155 Кбит/сек
Ширина                                   : 704 пикселя
Высота                                   : 576 пикселей
Соотношение сторон                       : 4:3
Частота кадров                           : 25,000 кадров/сек
Стандарт вещания                         : PAL
Цветовое пространство                    : YUV
Субдискретизация насыщенности            : 4:2:0
Битовая глубина                          : 8 бит
Тип развёртки                            : Чересстрочная
Порядок развёртки                        : Верхнее поле первое
Бит/(Пиксели*Кадры)                      : 0.213
Размер потока                            : 400 Мбайт (90%)
Основные цвета                           : BT.601 PAL
Характеристики трансфера                 : BT.470 System B, BT.470 System G
Коэффициенты матрицы                     : BT.601

Аудио
Идентификатор                            : 2425 (0x979)
Идентификатор меню                       : 425 (0x1A9)
Формат                                   : MPEG Audio
Версия формата                           : Version 1
Профиль формата                          : Layer 2
Идентификатор кодека                     : 4
Продолжительность                        : 25 м.
Вид битрейта                             : Постоянный
Битрейт                                  : 128 Кбит/сек
Каналы                                   : 2 канала
Частота                                  : 48,0 КГц
Метод сжатия                             : С потерями
Задержка видео                           : 11 мс.
Размер потока                            : 23,8 Мбайт (5%)
Язык                                     : std
Язык, дополнительно                      : Clean effects
01_Испытание характера
02_Дистанция смерти
03_Прыжок через полюс
04_Последний полет

Скриншоты:




Время раздачи: Сб-Вс с 09:00 до 23:30 (до появления первых 3-5 скачавших)
 
Не забывайте говорить Спасибо. Не уходите с раздачи!   
Торрент: Зарегистрирован [23 дек 2016, 17:28] Для скачивания .torrent
необходима регистрация
Или скачать с помощью
MediaGet
Статус:
Проверен
 
.torrent скачан: 0 раз
Хэш: 0eee4ffee004d745c0ee39c5ece723a88431155f
Размер: 1.76 ГБ (1 893 147 028 байт)
Стать Автором раздачи
 
 
Раздал: 100 ГБ
Скачал: 0 байт
Ратио: Seed.
Сообщения: 92102
Зарегистрирован: 09 апр 2015, 22:31


  • Похожие торренты
    Ответы
    Просмотры
    Последнее сообщение

Вернуться в Авиация (видео)

Ресурс не предоставляет электронные версии произведений, а занимается лишь коллекционированием и каталогизацией ссылок, присылаемых и публикуемых на форуме нашими читателями. Если вы являетесь правообладателем какого-либо представленного материала и не желаете чтобы ссылка на него находилась в нашем каталоге, свяжитесь с нами и мы незамедлительно удалим её. Файлы для обмена на трекере предоставлены пользователями сайта, и администрация не несёт ответственности за их содержание. Просьба не заливать файлы, защищенные авторскими правами, а также файлы нелегального содержания!
cron