Гийом Аполлинер, который украл Джоконду (2011) DVB

 
 Статистика раздачи 
Размер: 735.69 МБ   |  Зарегистрирован: 23 дек 2016, 03:02   |   .torrent скачан: 0 раз
Сидеров: 1  [ 0 байт/сек ]     Личеров: 0  [ 0 байт/сек ]  
  

Гийом Аполлинер, который украл Джоконду (2011) DVB

Сообщение explosiveone » 23 дек 2016, 03:02

Гийом Аполлинер, который украл Джоконду (2011) DVB

Телекомпания: Россия, Общероссийский государственный телеканал «Культура»
Жанр: Документальный, Биография, История

Участники: Режиссер: Мария Николаева

Описание:
Гийом Аполлинер - он же Вильгельм Костровицкий, поляк, итальянец и русский по происхождению, его признавали лучшим поэтом Франции. Поэтом, с которого началась современная поэзия. В сентябре 1911 года Аполлинер провел в тюрьме неделю. Он был единственным арестованным по делу о краже "Джоконды". Этот эпизод только один из множества странных, забавных и трагических, возвышенных и печальных... Жизнь Аполлинера была полна ими.

Продолжительность: 00:38:54
Качество видео: DVB

Видео: AVC/H.264, 704х576@768x576, ~2382 kb/s
Аудио: MP2, 2 ch, 128 kb/s, CBR
Код: Выделить всё
Общее
Идентификатор                            : 16 (0x10)
Полное имя                               : Гийом Аполлинер_который украл_Джоконду.ts
Формат                                   : MPEG-TS
Размер файла                             : 736 Мбайт
Продолжительность                        : 38 м.
Режим общего битрейта                    : Переменный
Общий поток                              : 2642 Кбит/сек

Видео
Идентификатор                            : 1103 (0x44F)
Идентификатор меню                       : 103 (0x67)
Формат                                   : MPEG Video
Версия формата                           : Version 2
Профиль формата                          : Main@Main
Параметр BVOP формата                    : Да
Параметр матрицы формата                 : Выборочная
Параметр GOP формата                     : Variable
Идентификатор кодека                     : 2
Продолжительность                        : 38 м.
Вид битрейта                             : Переменный
Битрейт                                  : 2382 Кбит/сек
Максимальный битрейт                     : 15,0 Мбит/сек
Ширина                                   : 704 пикселя
Высота                                   : 576 пикселей
Соотношение сторон                       : 4:3
Частота кадров                           : 25,000 кадров/сек
Стандарт вещания                         : PAL
Цветовое пространство                    : YUV
Субдискретизация насыщенности            : 4:2:0
Битовая глубина                          : 8 бит
Тип развёртки                            : Чересстрочная
Порядок развёртки                        : Верхнее поле первое
Метод сжатия                             : С потерями
Бит/(Пиксели*Кадры)                      : 0.235
Размер потока                            : 663 Мбайт (90%)

Аудио
Идентификатор                            : 2103 (0x837)
Идентификатор меню                       : 103 (0x67)
Формат                                   : MPEG Audio
Версия формата                           : Version 1
Профиль формата                          : Layer 2
Идентификатор кодека                     : 4
Продолжительность                        : 38 м.
Вид битрейта                             : Постоянный
Битрейт                                  : 128 Кбит/сек
Каналы                                   : 2 канала
Частота                                  : 48,0 КГц
Метод сжатия                             : С потерями
Размер потока                            : 35,6 Мбайт (5%)
Язык                                     : std
Язык, дополнительно                      : Clean effects
Об Аполлинере Гийоме (Московская правда", от 13 марта 2010 года):
"13 ноября 1918 года, во время похорон Гийома Аполлинера (он же Вильгельм Костровицкий) у церкви святого Фомы Аквинского раздавались крики толпы: "Долой Гийома! Долой Гийома!" Но обращены они были вовсе не к одному из лучших поэтов Франции. Мистификация, которая сопутствовала смерти человека, в чьих жилах текла польская, итальянская и русская кровь, была привычной спутницей всей его жизни. Именно Аполлинеру принадлежит вошедший в мировую культуру термин "сюрреализм". "Когда человек пожелал подражать ходьбе, он создал колесо, которое нисколько не напоминает ногу. Точно так же он занимается сюрреализмом, вовсе не подозревая об этом", - писал он в пьесе "Груди Тиресия".

Друзья-художники любили его рисовать (в фильме представлены знаменитые портреты Аполлинера кисти Анри Руссо, Мориса де Вламинка, Франсиса Пикабиа, Пабло Пикассо). Поэт любил наблюдать за их работой и много времени проводил на Монмартре. В сентябре 1911 года Аполлинер около недели находился в тюрьме по делу о краже из Лувра знаменитой "Джоконды". Это лишь один из многих эпизодов его странной и загадочной жизни".

Скриншоты:




Время раздачи: Сб-Вс с 09:00 до 23:30 (до появления первых 3-5 скачавших)
 
Не забывайте говорить Спасибо. Не уходите с раздачи!   
Торрент: Зарегистрирован [23 дек 2016, 03:02] Для скачивания .torrent
необходима регистрация
Или скачать с помощью
MediaGet
Статус:
Проверен
 
.torrent скачан: 0 раз
Хэш: ee175aa4729ae3b1bd9786275d1312a5e26be1ce
Размер: 735.69 МБ (771 422 656 байт)
Стать Автором раздачи
 
 
Раздал: 100 ГБ
Скачал: 0 байт
Ратио: Seed.
Сообщения: 82658
Зарегистрирован: 09 апр 2015, 22:31


  • Похожие торренты
    Ответы
    Просмотры
    Последнее сообщение

Вернуться в Биографии. Личности и кумиры

Кто сейчас на конференции

Сейчас эту тему просматривают: нет зарегистрированных пользователей и гости: 1

Ресурс не предоставляет электронные версии произведений, а занимается лишь коллекционированием и каталогизацией ссылок, присылаемых и публикуемых на форуме нашими читателями. Если вы являетесь правообладателем какого-либо представленного материала и не желаете чтобы ссылка на него находилась в нашем каталоге, свяжитесь с нами и мы незамедлительно удалим её. Файлы для обмена на трекере предоставлены пользователями сайта, и администрация не несёт ответственности за их содержание. Просьба не заливать файлы, защищенные авторскими правами, а также файлы нелегального содержания!