Кельты: Кровь и железо (1 сезон: 1-3 серия из 3) / The Celts: Blood, Iron and Sacrifice [2015, Документальный, археология, антропология, HDTVRip 720p] BBC, Dub (SDI Media) + Original Eng

 
 Статистика раздачи 
Размер: 4.16 ГБ   |  Зарегистрирован: 23 дек 2016, 00:34   |   .torrent скачан: 2 раз
Сидеров: 24  [ 0 байт/сек ]     Личеров: 9  [ 0 байт/сек ]  
  

Кельты: Кровь и железо (1 сезон: 1-3 серия из 3) / The Celts: Blood, Iron and Sacrifice [2015, Документальный, археология, антропология, HDTVRip 720p] BBC, Dub (SDI Media) + Original Eng

Сообщение aLaVodka » 23 дек 2016, 00:34

Кельты: Кровь и железо (Кельты: Кровью и железом с Элис Робертс и Нилом Оливером) / The Celts: Blood, Iron and Sacrifice (The Celts: Blood, Iron and Sacrifice with Alice Roberts and Neil Oliver)
Год выпуска: 2015
Страна: Великобритания
Студия: BBC
Жанр: Документальный, археология, антропология, история, древние народы
Продолжительность: 3 х ~ 00:58:38
Перевод: Профессиональный (дублированный) /голос рассказчика - полный дубляж, интервью - слышна оригинальная речь/
Доп. инфо о переводе: SDI Media
Русские субтитры: нет

Описание: Антрополог Элис Робертс и археолог Нил Оливер отправляются на поиски Кельтов - одного из самых загадочных народов древности. В Британии и Ирландии кельтское наследие можно встретить повсеместно, но в этом документальном фильме Нил и Элис отправятся далеко за пределы туманного альбиона и расскажут о происхождении и верованиях кельтского народа, жившего в Железном Веке, чьи артефакты и останки раскиданы по всей Европе - от Турции до Португалии. Да ещё и с впечатляющими реконструкциями образа жизни кельтов.
1. Вы увидите истоки кельтского народа в Центральных Альпах и станете свидетелями первого сражения на севере Рима, которое надолго запомнится империи.
2. Как удалось воину-галлу Верцингеториксу в первом веке до нашей эры объединить кельтов для противостояния Юлию Цезарю, ради битвы, которая сформировала будущую Европу?
3. В этой серии вы узнаете, как римская армия решила завоевать Британию - остров, полный ресурсов, сильных племён с развитым военным ремеслом - родину королевы Боудикки.
Цитата:
Автор рипа: skorpionN
Переведено и озвучено: SDI Media
Перевод: Сергей Антонов
Текст читает: Ольга Зубкова

Сэмпл: http://multi-up.com/1119612

Тип релиза: HDTVRip 720p
Контейнер: MKV

Видео: MPEG-4 AVC, ~ 3000 Кбит/с, 1280x720, 25.000 fps
Аудио 1: Русский (АС3, 2 ch, 192 Кбит/с, 48.0 KHz)
Аудио 2: Английский (АС3, 2 ch, 192 Кбит/с, 48.0 KHz)
Код: Выделить всё
Format : Matroska
Format version : Version 4 / Version 2
File size : 1.39 GiB
Duration : 58 min 50 s
Overall bit rate mode : Variable
Overall bit rate : 3 382 kb/s
Encoded date : UTC 2016-11-03 16:50:38
Writing application : mkvmerge v7.3.0 ('Nouages') 64bit built on Oct 22 2014 18:53:34
Writing library : libebml v1.3.0 + libmatroska v1.4.1
Video
ID : 1
Format : AVC
Format/Info : Advanced Video Codec
Format profile : High@L4.1
Format settings, CABAC : Yes
Format settings, ReFrames : 3 frames
Codec ID : V_MPEG4/ISO/AVC
Duration : 58 min 50 s
Bit rate mode : Variable
Bit rate : 3 000 kb/s
Maximum bit rate : 8 000 kb/s
Width : 1 280 pixels
Height : 720 pixels
Display aspect ratio : 16:9
Frame rate mode : Constant
Frame rate : 25.000 FPS
Standard : NTSC
Color space : YUV
Chroma subsampling : 4:2:0
Bit depth : 8 bits
Scan type : Progressive
Bits/(Pixel*Frame) : 0.130
Stream size : 1.23 GiB (89%)
Writing library : x264 core 114
Encoding settings : cabac=1 / ref=3 / deblock=1:0:0 / analyse=0x3:0x113 / me=hex / subme=7 / psy=1 / psy_rd=1.00:0.00 / mixed_ref=1 / me_range=16 / chroma_me=1 / trellis=1 / 8x8dct=1 / cqm=2 / deadzone=21,11 / fast_pskip=1 / chroma_qp_offset=-4 / threads=6 / sliced_threads=0 / slices=1 / nr=0 / decimate=1 / interlaced=0 / constrained_intra=0 / bframes=3 / b_pyramid=0 / b_adapt=1 / b_bias=0 / direct=1 / weightb=1 / open_gop=0 / weightp=2 / keyint=250 / keyint_min=25 / scenecut=40 / intra_refresh=0 / rc_lookahead=40 / rc=2pass / mbtree=1 / bitrate=3000 / ratetol=1.0 / qcomp=0.60 / qpmin=5 / qpmax=69 / qpstep=4 / cplxblur=20.0 / qblur=0.5 / vbv_maxrate=8000 / vbv_bufsize=7995 / nal_hrd=vbr / ip_ratio=1.40 / aq=1:1.00
Default : Yes
Forced : No
Color range : Limited
Color primaries : BT.709
Transfer characteristics : BT.709
Matrix coefficients : BT.709

Audio #1
ID : 2
Format : AC-3
Format/Info : Audio Coding 3
Mode extension : CM (complete main)
Format settings, Endianness : Big
Codec ID : A_AC3
Duration : 58 min 50 s
Bit rate mode : Constant
Bit rate : 192 kb/s
Channel(s) : 2 channels
Channel positions : Front: L R
Sampling rate : 48.0 kHz
Frame rate : 31.250 FPS (1536 spf)
Compression mode : Lossy
Stream size : 80.8 MiB (6%)
Language : Russian
Default : Yes
Forced : No

Audio #2
ID : 3
Format : AC-3
Format/Info : Audio Coding 3
Mode extension : CM (complete main)
Format settings, Endianness : Big
Codec ID : A_AC3
Duration : 58 min 50 s
Bit rate mode : Constant
Bit rate : 192 kb/s
Channel(s) : 2 channels
Channel positions : Front: L R
Sampling rate : 48.0 kHz
Frame rate : 31.250 FPS (1536 spf)
Compression mode : Lossy
Stream size : 80.8 MiB (6%)
Language : English
Default : No
Forced : Yes


 
Не забывайте говорить Спасибо. Не уходите с раздачи!   
Торрент: Зарегистрирован [23 дек 2016, 00:34] Для скачивания .torrent
необходима регистрация
Или скачать с помощью
MediaGet
Статус:
Проверен
 
.torrent скачан: 2 раз
Хэш: 5548699ef2b8127ed2f0d271588b519274080569
Размер: 4.16 ГБ (4 468 032 177 байт)
Стать Автором раздачи
 
 
Раздал: 100 ГБ
Скачал: 0 байт
Ратио: Seed.
Сообщения: 188762
Зарегистрирован: 09 апр 2015, 20:00


  • Похожие торренты
    Ответы
    Просмотры
    Последнее сообщение

Вернуться в История (HD Video)

Ресурс не предоставляет электронные версии произведений, а занимается лишь коллекционированием и каталогизацией ссылок, присылаемых и публикуемых на форуме нашими читателями. Если вы являетесь правообладателем какого-либо представленного материала и не желаете чтобы ссылка на него находилась в нашем каталоге, свяжитесь с нами и мы незамедлительно удалим её. Файлы для обмена на трекере предоставлены пользователями сайта, и администрация не несёт ответственности за их содержание. Просьба не заливать файлы, защищенные авторскими правами, а также файлы нелегального содержания!
cron