В постели с Викторией / Victoria (2016) WEB-DLRip [H.264][MP4|1024x432]

 
 Статистика раздачи 
Размер: 1.95 ГБ   |  Зарегистрирован: 20 дек 2016, 23:20   |   .torrent скачан: 0 раз
Сидеров: 1  [ 0 байт/сек ]     Личеров: 0  [ 0 байт/сек ]  
  

В постели с Викторией / Victoria (2016) WEB-DLRip [H.264][MP4|1024x432]

Сообщение explosiveone » 20 дек 2016, 23:20

В постели с Викторией / Victoria (2016) WEB-DLRip


Производство: Франция / Ecce Films, France 2 Cinéma, Le Pacte
Жанр: Драма, Мелодрама, Комедия

Режиссер: Жюстин Трие
Актеры: Виржини Эфира, Венсан Лакост, Мельвиль Пупо, Лоран Пуатрено, Лорэ Кэлами, Alice Daquet, Жюли Мулье, Elsa Wolliaston, Софи Фийер, Liv Harari

Описание:
Виктория пытается начать новую жизнь — взять себя в руки, разобраться с любовниками, больше спать и лучше питаться. Только вот бывший, обратившийся к ней за помощью, не помогает навести порядок. А другой возлюбленный, возомнивший себя популярным писателем, посвящает всю сеть в подробности ее интимной жизни.


Возраст: 18+ (зрителям, достигшим 18 лет. запрещено для детей)

Релиз от: NNMClub
Продолжительность: 01:35:59
Качество видео: WEB-DLRip
Перевод: Многоголосый закадровый - (iTunes)
Вид субтитров: Отсутствуют

Видео: AVC/H.264 (Main@L3.1), 1024x432 (2.35:1), 2771 Кбит/сек
Аудио #1: AAC, 2 канала, 128 Кбит/сек - русский (многоголосый закадровый)
Код:
General
Complete name                            : C:\DGI\Victoria.2016.576p.WEB-DLRip.AAC.h264.NNMclub.mp4
Format                                   : MPEG-4
Format profile                           : Base Media / Version 2
Codec ID                                 : mp42 (mp42/isom)
File size                                : 1.95 GiB
Duration                                 : 1 h 35 min
Overall bit rate mode                    : Variable
Overall bit rate                         : 2 904 kb/s
Movie name                               : Victoria
Performer                                : Justine Triet
Director                                 : Justine Triet
Genre                                    : Drame
ContentType                              : Short Film
Description                              : Victoria Spick, avocate pénaliste en plein néant sentimental, débarque à un mariage où elle y
Recorded date                            : 2016-09-14
Encoded date                             : UTC 2016-12-20 07:13:44
Tagged date                              : UTC 2016-12-20 07:20:21
Cover                                    : Yes
LongDescription                          : Victoria Spick, avocate pénaliste en plein néant sentimental, débarque à un mariage où elle y retrouve son ami Vincent et Sam, un ex-dealer qu’elle a sorti d’affaire. Le lendemain, Vincent est accusé de tentative de meurtre par sa compagne. Seul témoin de la scène, le chien de la victime. Victoria accepte à contrecœur de défendre Vincent tandis qu'elle embauche Sam comme jeune homme au pair. Le début d’une série de cataclysmes pour Victoria.
AppleStoreCountry                        : France
AppleStoreCatalogID                      : 1114048911
ContentRating                            : fr-movie|Tout public|000|

Video
ID                                       : 1
Format                                   : AVC
Format/Info                              : Advanced Video Codec
Format profile                           :
Format settings, CABAC                   : No
Format settings, ReFrames                : 4 frames
Codec ID                                 : avc1
Codec ID/Info                            : Advanced Video Coding
Duration                                 : 1 h 35 min
Bit rate                                 : 2 771 kb/s
Width                                    : 1 024 pixels
Height                                   : 432 pixels
Display aspect ratio                     : 2.40:1
Frame rate mode                          : Variable
Frame rate                               : 24.000 FPS
Minimum frame rate                       : 23.810 FPS
Maximum frame rate                       : 24.390 FPS
Color space                              : YUV
Chroma subsampling                       : 4:2:0
Bit depth                                : 8 bits
Scan type                                : Progressive
Bits/(Pixel*Frame)                       : 0.261
Stream size                              : 1.86 GiB (95%)
Writing library                          : x264 core 146 r2538 121396c
Encoding settings                        : cabac=0 / ref=3 / deblock=1:-1:-1 / analyse=0x1:0x111 / me=umh / subme=7 / psy=1 / psy_rd=1.00:0.20 / mixed_ref=1 / me_range=32 / chroma_me=1 / trellis=2 / 8x8dct=0 / cqm=0 / deadzone=21,11 / fast_pskip=0 / chroma_qp_offset=-3 / threads=18 / lookahead_threads=3 / sliced_threads=0 / nr=0 / decimate=0 / interlaced=0 / bluray_compat=0 / constrained_intra=0 / bframes=3 / b_pyramid=2 / b_adapt=2 / b_bias=0 / direct=3 / weightb=1 / open_gop=0 / weightp=0 / keyint=250 / keyint_min=23 / scenecut=40 / intra_refresh=0 / rc_lookahead=50 / rc=2pass / mbtree=1 / bitrate=2771 / ratetol=1.0 / qcomp=0.60 / qpmin=0 / qpmax=69 / qpstep=4 / cplxblur=20.0 / qblur=0.5 / vbv_maxrate=14000 / vbv_bufsize=14000 / nal_hrd=none / filler=0 / ip_ratio=1.40 / aq=1:1.00
Encoded date                             : UTC 2016-12-20 07:13:44
Tagged date                              : UTC 2016-12-20 07:20:21
Color range                              : Limited
Color primaries                          : BT.709
Transfer characteristics                 : BT.709
Matrix coefficients                      : BT.709
Menus                                    : 3

Audio
ID                                       : 2
Format                                   : AAC
Format/Info                              : Advanced Audio Codec
Format profile                           : LC
Codec ID                                 : 40
Duration                                 : 1 h 35 min
Source duration                          : 1 h 35 min
Bit rate mode                            : Variable
Bit rate                                 : 128 kb/s
Maximum bit rate                         : 145 kb/s
Channel(s)                               : 2 channels
Channel positions                        : Front: L R
Sampling rate                            : 48.0 kHz
Frame rate                               : 46.875 FPS (1024 spf)
Compression mode                         : Lossy
Stream size                              : 87.9 MiB (4%)
Source stream size                       : 87.9 MiB (4%)
Language                                 : Russian
Default                                  : Yes
Alternate group                          : 1
Encoded date                             : UTC 2016-12-20 07:13:44
Tagged date                              : UTC 2016-12-20 07:20:21

Menu
ID                                       : 3
Codec ID                                 : text
Duration                                 : 1 h 35 min
Language                                 : English
Encoded date                             : UTC 2016-12-20 07:20:21
Tagged date                              : UTC 2016-12-20 07:20:21
Menu For                                 : 1
00:00:00.000                             : 1
00:07:01.500                             : 2
00:13:51.041                             : 3
00:20:20.999                             : 4
00:28:25.707                             : 5
00:36:00.832                             : 6
00:43:03.373                             : 7
00:49:58.831                             : 8
00:56:52.456                             : 9
01:04:45.956                             : 10
01:11:28.122                             : 11
01:18:12.622                             : 12
01:25:59.580                             : 13
Bit rate mode                            : VBR


Скриншоты:



Время раздачи: 24/7 (круглосуточно) (до появления первых 3-5 скачавших)
 
Не забывайте говорить Спасибо. Не уходите с раздачи!   
Торрент: Зарегистрирован [20 дек 2016, 23:20] Для скачивания .torrent
необходима регистрация
Или скачать с помощью
MediaGet
Статус:
Проверен
 
.torrent скачан: 0 раз
Хэш: c33231f0ab7b23e385e4b8fa1f37710234c7d39a
Размер: 1.95 ГБ (2 091 083 440 байт)
Стать Автором раздачи
 
 
Раздал: 100 ГБ
Скачал: 0 байт
Ратио: Seed.
Сообщения: 94020
Зарегистрирован: 09 апр 2015, 22:31


  • Похожие торренты
    Ответы
    Просмотры
    Последнее сообщение

Вернуться в Видео для мобильных устройств

Ресурс не предоставляет электронные версии произведений, а занимается лишь коллекционированием и каталогизацией ссылок, присылаемых и публикуемых на форуме нашими читателями. Если вы являетесь правообладателем какого-либо представленного материала и не желаете чтобы ссылка на него находилась в нашем каталоге, свяжитесь с нами и мы незамедлительно удалим её. Файлы для обмена на трекере предоставлены пользователями сайта, и администрация не несёт ответственности за их содержание. Просьба не заливать файлы, защищенные авторскими правами, а также файлы нелегального содержания!
cron