День, когда... (3 серии из 4) / The Day When... (Лоран Жоффин, Лоран Портес / Laurent Joffrin & Laurent Portes) [2014-2015, Документальный, война, история, постановочный, HDTVRip]

 
 Статистика раздачи 
Размер: 2.19 ГБ   |  Зарегистрирован: 20 дек 2016, 08:51   |   .torrent скачан: 0 раз
Сидеров: 8  [ 0 байт/сек ]     Личеров: 2  [ 0 байт/сек ]  
  

День, когда... (3 серии из 4) / The Day When... (Лоран Жоффин, Лоран Портес / Laurent Joffrin & Laurent Portes) [2014-2015, Документальный, война, история, постановочный, HDTVRip]

Сообщение aLaVodka » 20 дек 2016, 08:51

День, когда... (3 серии из 4) / The Day When...

Дата/Год выпуска: 2014-2015
Страна: Франция, Et La Suite Productions, France Televisions and Planete+
Жанр: Документальный, война, история, постановочный
Продолжительность: 3 x ~ 00:51:47
Перевод: Профессиональный (дублированный)
Режиссер: Лоран Жоффин, Лоран Портес / Laurent Joffrin & Laurent Portes

Телеканал: Viasat History HD

Описание: Гитлер, Черчилль, де Голль и Рузвельт. Это те люди, которые сформировали историю ХХ века. Во времена кризиса или войны, любое личное решение национального лидера может изменить правила игры. Используя архивные материалы и исторические реконструкции, мы увидим тот день, когда эти известные политики приняли решения, которые повлияли на ход истории во Второй мировой войне.

Доп. информация: Авторство релиза - alf62


качество: HDTVRip
формат: AVI
Видео: 720x400 (1.80:1), 25 fps, XviD build 73 ~1799 kbps avg, 0.25 bit/pixel
Аудио: 48 kHz, AC3 Dolby Digital, 2/0 (L,R) ch, ~192.00 kbps avg
1. Когда Черчилль выбрал войну / Churchill chose war
28 мая 1940 года, после разгрома Вермахтом сил союзников во Франции, Черчилль убеждает единомышленников присоединиться к борьбе с Гитлером, изменив ход Второй мировой для Великобритании.

2. Когда Де Голль выбрал войну / De Gaulle chose war
Это история о том, как Шарль де Голль выступил против соглашения о перемирии между Францией и Германией во время Второй мировой войны, и прилетел в Англию в качестве лидера Свободной Франции.

3. Когда Рузвельт выбрал войну / Roosevelt chose war
После атаки японцами на Пёрл-Харбор в 1941 году, Рузвельт решил вместо Японии, сосредоточить усилия на Германии, что несомненно привело к её поражению.
Код: Выделить всё
День.когда.(1.серия).Когда.Черчилль.выбрал.войну.2014.XviD.HDTVRip.alf62.avi
Формат                                   : AVI
Формат/Информация                        : Audio Video Interleave
Размер файла                             : 741 Мбайт
Продолжительность                        : 51 м.
Общий поток                              : 2002 Кбит/сек
Программа кодирования                    : VirtualDubMod 1.5.10.3 | www.virtualdub-fr.org || (build 2550/release)
Библиотека кодирования                   : VirtualDubMod build 2550/release

Видео
Идентификатор                            : 0
Формат                                   : MPEG-4 Visual
Профиль формата                          : Advanced [email protected]
Параметр BVOP формата                    : 2
Параметр QPel формата                    : Нет
Параметр GMC формата                     : Без точки перехода
Параметр матрицы формата                 : Default (MPEG)
Идентификатор кодека                     : XVID
Идентификатор кодека/Подсказка           : XviD
Продолжительность                        : 51 м.
Битрейт                                  : 1800 Кбит/сек
Ширина                                   : 720 пикселей
Высота                                   : 400 пикселей
Соотношение сторон                       : 16:9
Частота кадров                           : 25,000 кадров/сек
Цветовое пространство                    : YUV
Субдискретизация насыщенности            : 4:2:0
Битовая глубина                          : 8 бит
Тип развёртки                            : Прогрессивная
Метод сжатия                             : С потерями
Бит/(Пиксели*Кадры)                      : 0.250
Размер потока                            : 667 Мбайт (90%)
Библиотека кодирования                   : XviD 73

Аудио
Идентификатор                            : 1
Формат                                   : AC-3
Формат/Информация                        : Audio Coding 3
Расширение режима                        : CM (complete main)
Параметр Endianness формата              : Big
Идентификатор кодека                     : 2000
Продолжительность                        : 51 м.
Вид битрейта                             : Постоянный
Битрейт                                  : 192 Кбит/сек
Каналы                                   : 2 канала
Расположение каналов                     : Front: L R
Частота                                  : 48,0 КГц
Битовая глубина                          : 16 бит
Метод сжатия                             : С потерями
Размер потока                            : 71,1 Мбайт (10%)
Выравнивание                             : Разделение по промежуткам
Продолжительность промежутка             : 40  мс. (1,00 видеокадр)
Время предзагрузки промежутка            : 500  мс.
Внимание! Раздача ведётся путём добавления новых серий
Внимание! Раздача ведётся путём добавления новых серий; при каждом добавлении создаётся новый торрент. Чтобы начать докачку новой серии, пользователям необходимо сделать следующее:
• Остановить скачивание.
• Удалить старый торрент у себя из клиента (старые серии удалять не надо).
• Скачать новый торрент и запустить его у себя в клиенте вместо старого, при этом указать клиенту путь в старую папку куда и должно происходить скачивание новых серий.
Ваш клиент при этом должен произвести хеширование (проверку) старой папки (если не производит сам - помогите ему сделать это), и будет докачивать только те серии которых у вас ещё нет. Старые серии при этом не удаляются, а продолжают раздаваться!
Eсли вы уже удалили старые серии, то предотвратить повторную закачку старых серий можно, отжав галочку в соответсвующих местах при запуске нового торрента. По возможности, желательно не удалять старые серии как можно дольше чтобы релизёр не столько продолжал раздавать старые серии, а смог сконцентрироваться на новых.




 
Не забывайте говорить Спасибо. Не уходите с раздачи!   
Торрент: Зарегистрирован [20 дек 2016, 08:51] Для скачивания .torrent
необходима регистрация
Или скачать с помощью
MediaGet
Статус:
Проверен
 
.torrent скачан: 0 раз
Хэш: e049a2d894de1a5caa68cf0d741dad683dc341a7
Размер: 2.19 ГБ (2 352 226 304 байт)
Стать Автором раздачи
 
 
Раздал: 100 ГБ
Скачал: 0 байт
Ратио: Seed.
Сообщения: 173130
Зарегистрирован: 09 апр 2015, 20:00


  • Похожие торренты
    Ответы
    Просмотры
    Последнее сообщение

Вернуться в Вторая мировая война

Кто сейчас на конференции

Сейчас эту тему просматривают: нет зарегистрированных пользователей и гости: 1

Ресурс не предоставляет электронные версии произведений, а занимается лишь коллекционированием и каталогизацией ссылок, присылаемых и публикуемых на форуме нашими читателями. Если вы являетесь правообладателем какого-либо представленного материала и не желаете чтобы ссылка на него находилась в нашем каталоге, свяжитесь с нами и мы незамедлительно удалим её. Файлы для обмена на трекере предоставлены пользователями сайта, и администрация не несёт ответственности за их содержание. Просьба не заливать файлы, защищенные авторскими правами, а также файлы нелегального содержания!