Легенды советского сыска. Годы войны (24 выпускa) [2015-2016, Документальный цикл, криминал, DVB]

 
 Статистика раздачи 
Размер: 24.71 ГБ   |  Зарегистрирован: 19 дек 2016, 09:18   |   .torrent скачан: 2 раз
Сидеров: 1  [ 0 байт/сек ]     Личеров: 0  [ 0 байт/сек ]  
  

Легенды советского сыска. Годы войны (24 выпускa) [2015-2016, Документальный цикл, криминал, DVB]

Сообщение aLaVodka » 19 дек 2016, 09:18

Легенды советского сыска. Годы войны

Год выпуска: 2015-2016
Страна: Россия
Жанр: Документальный цикл, криминал
Продолжительность: 00:37:58
Перевод: Не требуется
Русские субтитры: нет

Оригинальная аудиодорожка: русский
Телеканал: Звезда
Описание:
Новый цикл документальных фильмов посвящен уголовным делам, которые московские сыщики расследовали в годы войны. Когда враг стоял у стен Москвы, когда на фронтах решались судьбы страны, для сыщиков Московского УГРО работы было не меньше, чем в мирное время. Это был, по сути, внутренний фронт. Пока лучшие люди страны бились с врагом и приближали победу в тылу, в столице активизировались карманники, грабители, убийцы... Банды уголовников и дезертиров безжалостно убивали из-за продовольственных карточек, пальто или наручных часов. О преступлениях, совершенных в ту тяжелую пору, было запрещено писать в газетах или говорить по радио. До сих пор многие уголовные дела военных лет хранятся под грифом «секретно».

19.12.2016 _ добавил выпуск: Дело сатаны
перезаливаем

Сэмпл: http://multi-up.com/1095403

качество: DVB
формат: MPG
Видео: MPEG 2, 704x576, (4:3), 25 fps, 4 311 kbps
Аудио: Pусский, MP2, 48 kHz, 2 ch, 192 kbps
Багровый апрель
Влюблённый палач
Военно-полевой роман
Дама с вуалью
Двоеженец
Двойник
Дело матроса
Дело однорукого
Дело рыжего
Дело сатаны
Красная шапочка
Мешок с деньгами
Настоящий Шарапов
Немецкий барон
Опасная фамилия
Письмо Сталину
По кличке Седой
Секретный подвал
Убийца-невидимка
Убийца союзного значения
Украденные жизни
Хромой
Чёрная кошка. Непридуманная история
Чёрные демоны
Код: Выделить всё
General
Complete name                            : C:\Z_Легенды советского сыска. Годы войны\Хромой.mpg
Format                                   : MPEG-PS
File size                                : 768 MiB
Duration                                 : 37mn 58s
Overall bit rate mode                    : Variable
Overall bit rate                         : 2 826 Kbps

Video
ID                                       : 224 (0xE0)
Format                                   : MPEG Video
Format version                           : Version 2
Format profile                           : Main@Main
Format settings, BVOP                    : Yes
Format settings, Matrix                  : Custom
Format settings, GOP                     : Variable
Format settings, picture structure       : Frame
Duration                                 : 37mn 58s
Bit rate mode                            : Variable
Bit rate                                 : 2 578 Kbps
Maximum bit rate                         : 15.0 Mbps
Width                                    : 704 pixels
Height                                   : 576 pixels
Display aspect ratio                     : 4:3
Frame rate                               : 25.000 fps
Standard                                 : PAL
Color space                              : YUV
Chroma subsampling                       : 4:2:0
Bit depth                                : 8 bits
Scan type                                : Interlaced
Scan order                               : Top Field First
Compression mode                         : Lossy
Bits/(Pixel*Frame)                       : 0.254
Time code of first frame                 : 00:00:00:00
Time code source                         : Group of pictures header
GOP, Open/Closed                         : Open
GOP, Open/Closed of first frame          : Closed
Stream size                              : 700 MiB (91%)

Audio
ID                                       : 192 (0xC0)
Format                                   : MPEG Audio
Format version                           : Version 1
Format profile                           : Layer 2
Duration                                 : 37mn 58s
Bit rate mode                            : Constant
Bit rate                                 : 192 Kbps
Channel(s)                               : 2 channels
Sampling rate                            : 48.0 KHz
Compression mode                         : Lossy
Delay relative to video                  : 1ms
Stream size                              : 52.1 MiB (7%)
 
Не забывайте говорить Спасибо. Не уходите с раздачи!   
Торрент: Зарегистрирован [19 дек 2016, 09:18] Для скачивания .torrent
необходима регистрация
Или скачать с помощью
MediaGet
Статус:
Проверен
 
.torrent скачан: 2 раз
Хэш: a49a5c09c18687e1b1ed0dfcff1ad863579a8de5
Размер: 24.71 ГБ (26 531 942 400 байт)
Стать Автором раздачи
 
 
Раздал: 100 ГБ
Скачал: 0 байт
Ратио: Seed.
Сообщения: 187789
Зарегистрирован: 09 апр 2015, 20:00


Вернуться в Криминальная документалистика

Ресурс не предоставляет электронные версии произведений, а занимается лишь коллекционированием и каталогизацией ссылок, присылаемых и публикуемых на форуме нашими читателями. Если вы являетесь правообладателем какого-либо представленного материала и не желаете чтобы ссылка на него находилась в нашем каталоге, свяжитесь с нами и мы незамедлительно удалим её. Файлы для обмена на трекере предоставлены пользователями сайта, и администрация не несёт ответственности за их содержание. Просьба не заливать файлы, защищенные авторскими правами, а также файлы нелегального содержания!
cron