Планета Земля 2 (1-6 серии из 6) / Planet Earth II (Джастин Андерсон / Justin Anderson) [2016, Документальный, природа, флора, фауна, BDRip 720p] BBC, VO (Jimmy J.), DVO (Омикрон), VO Ukr (Ю.Онищенко) + Sub Rus, Ukr, Eng + Original Eng

 
 Статистика раздачи 
Размер: 17.53 ГБ   |  Зарегистрирован: 18 дек 2016, 20:22   |   .torrent скачан: 117 раз
Сидеров: 1  [ 0 байт/сек ]     Личеров: 0  [ 0 байт/сек ]  
  

Планета Земля 2 (1-6 серии из 6) / Planet Earth II (Джастин Андерсон / Justin Anderson) [2016, Документальный, природа, флора, фауна, BDRip 720p] BBC, VO (Jimmy J.), DVO (Омикрон), VO Ukr (Ю.Онищенко) + Sub Rus, Ukr, Eng + Original Eng

Сообщение aLaVodka » 18 дек 2016, 20:22

Планета Земля 2 / Planet Earth II
Год выпуска: 2016
Страна: Великобритания
Студия: BBC America, BBC Television Centre, Zweites Deutsches Fernsehen (ZDF)
Жанр: Документальный, природа, путешествие, исследование, флора, фауна
Продолжительность: 6 x ~ 00:58:00
Перевод: Одноголосый (закадровый) - релиз-группа "Jimmy J." / Студийный (двухголосый закадровый) - студия "Омикрон" / Одноголосый украинский (закадровый) - Ю.Онищенко (ник - Logos71)
Субтитры: Русские, украинские, английские

Режиссер: Джастин Андерсон / Justin Anderson
Композитор: Джаша Клебе, Джейкоб Ши, Ханс Циммер

Описание: Представляю Вашему вниманию очередной документальный блокбастер от создателей сериалов "Планета Земля" и "Голубая планета" - мини документальный сериал с непревзойдённым Дэвидом Аттенборо в главной роли "Планета Земля 2", который покажет нашу планету какой её ещё никто не видел прежде. Вы увидите невероятные по красоте пейзажи и самые заповедные и малоизученные уголки Земли. Четыре года напряженной работы и беспрецедентный для документального фильма бюджет позволили создать уникальный по масштабности и красоте фильм, а революционные режимы сверхскоростной съемки и детализации картинки, сделали возможным показать великолепие нашей природы во всех подробностях, от которых захватывает дыхание и кружится голова. Усаживайтесь поудобнее и насладитесь великолепием нашей Земли!
1. Острова / Islands
2. Горы / Mountains
3. Джунгли / Jungles
4. Пустыни / Deserts
5. Пастбища / Grasslands
6. Города / Cities


• Подготовки рипа (кодирование видео):
1 серия - HDCLUB / Автор: DeTorquemada
2-4 серии - Fандорин
5-6 серии - HDChina (в данных сериях приблизительно на 25% превышен битрейт видео, они будут перекодированы мной с другого HD-источника с оптимально подобранным битрейтом видео и перезалиты одновременно с переводом к 6-й серии)
• Адаптация постера под 2-й сезон, добавление в релиз переводов от релиз-группы "Jimmy J." ,студии "Омикрон" и Ю.Онищенка (ник - Logos71), а также усовершенствование описания: Fандорин
• Реклама (визуальна и голосовая) отсутствует.

Русский (AC3, 6 ch, 640 Кбит/с) - одноголосый (закадровый) 1-5 серии
Перевод: "N-Team"
Озвучено: релиз-группой "Jimmy J."
Работа со звуком: Кирилл Жирнов
Текст читает: Дмитрий Чепусов (он же Jimmy J.)
это новый, яркий и динамичный интернет проект по озвучиванию зарубежных сериалов. Создатели и участники проекта – это команда молодых ребят, которые с радостью трудятся для многих фанатов. Перевод и озвучивание сериалов уже начинает входить в моду, это можно уже назвать трендом нулевых и десятых годов 21 века. Озвучка от команды «Jimmy J.» – это не тупой и шаблонный перевод оригинального текста сериала, а нечто большее, с интересными и звонкими речевыми вставками и яркими словосочетаниями, и забавными голосами. И, конечно же, приперченная ненормативной лексикой. Все это – новая эра озвучивания зарубежных сериалов, имя которой «Jimmy J.»
Русский (AC3, 6 ch, 640 Кбит/с) - студийный (двухголосый закадровый) - пока только к 1-й серии
Озвучено: студия "Омикрон" специально для HDCLUB.
Перевод: Виктор Петренко
Задействовано 2 актера. Русская дорожка получена наложением чистого голоса.
Перевод и озвучивание осуществлено в рамках сервиса от HDCLUB "Озвучивание". Спонсоры: Scorpion26, habal_garmin, banan58, Sytnik, lokolex, caban_2001, McClaud, yuriker, PinCho, qwerty2014, v41, ShaKh, Кириллка, lasvegas, Buxy, gorett, ek0, vrvz, Portos, Turko, stallk, aleksbmf, Rain, Максим360, laser10, iiiMia, superbizho, Igor_M, alvane, santa143, TimT, DOMINO, oopsmsk, AlexRozen, зема2011, Badj, RYBCHENKO, terminal, LLIukO, SpaceShuttle, svnnvs, ayazad, fire_lizard, misterr_, BaseJumper, Plesha, alrmothe, GoAInSIDE, game47, kornilov7, FuzzzzyBoy, nucl2, Wet21, diler7, Milvus, Ant1k91, Markalay, samos2001, YAGOUAROUNDI.

Украинский (AC3, 6 ch, 640 Кбит/с) - одноголосый украинский (закадровый) - пока только к 1-й серии. Украинская дорожка взята с авторского релиза релиз-группы "Відео Гуртом".
Перевод и озвучивание: Ю.Онищенко (ник - Logos71)
Монтаж звука: Hanway

Субтитры:
Русские: avtogen - 1-6 серии
Украинские: Ю.Онищенко (ник - Logos71), адаптированы под украинскую озвучку - 1 серия
Английские - 1-6 серии

Накопительная раздача, ведется путём добавления новых серий. По мере выхода переводов от студии "Омикрон" и Ю.Онищенка (ник - Logos71) они будут добавлены в серии в дополнение к переводу от РГ "Jimmy J.".
В 5-6 сериях от HDChina приблизительно на 20% превышен битрейт видео, они будут перекодированы мной с другого HD-источника с оптимально подобранным битрейтом видео и перезалиты одновременно с переводом к 6-й серии.

ВНИМАНИЕ! 6 серия в раздаче пока без голосового перевода, только русские субтитры.

Сэмпл: http://multi-up.com/1130632 / http://sendfile.su/1289724
Планета Земля 2 / Planet Earth II / BDRip 1080р -

Отличия от этой раздачи ==> или почему данная раздача также должна остаться на трекере:
1. В данной раздаче оптимально подобранный битрейт видео как и полагается для BDRip 720p. Лог кодирования тому подтверждение. В раздаче от Ton-ik битрейт видео превышен приблизительно на 20-25%, что приводит к необоснованному увеличению веса раздачи.
1 серия от Ton-ik:
x264 [info]: frame I:742 Avg QP:16.16 size:167396
x264 [info]: frame P:23554 Avg QP:17.75 size: 72588
x264 [info]: frame B:63579 Avg QP:18.49 size: 33357

1 серия от DeTorquemada (HDCLUB):
x264 [info]: frame I:757 Avg QP:18.73 size:136131
x264 [info]: frame P:20284 Avg QP:20.15 size: 51976
x264 [info]: frame B:66835 Avg QP:22.58 size: 16412

2 серия от меня (выложу сразу все серии с 2 по 6, 1-ю оставлю от HDCLUB):
x264 [info]: frame I:659 Avg QP:15.85 size:221979
x264 [info]: frame P:25693 Avg QP:18.77 size: 53511
x264 [info]: frame B:61022 Avg QP:22.31 size: 10869

Кто умеет читать лог кодирования, тот сразу поймет, что битрейта видео в релизе от Ton-ik много.

Определяем средние кванты:
Имеем три цифры квантов: для I фреймов, для P фреймов и для B фреймов. Чем динамичнее видеоряд, тем больше будет между ними разница и тем выше будут кванты для B фреймов. Если все три цифры не превышают 18, то полученного битрейта будет много и его смело можно резать процентов на 25 минимум. Если все три цифры превышают 22-23, то битрейта не хватает и его надо поднимать, если только целью не является минимальный размер рипа с допустимыми артефактами компресии. Для очень динамичного видео средний квант ~25 для b-фреймов вполне допустим. Обычно стоит следить, чтобы он не поднимался выше.
2. В данной раздаче два отдельных русских перевода. Например, релиз-группой "Jimmy J." переведено уже 5 серий.

Тип релиза: BDRip 720p
Контейнер: MKV

Видео: MPEG-4 AVC, ~ 5000 Кбит/с, 1280x720, 25.000 fps
Аудио 1: Русский (AC3, 6 ch, 640 Кбит/с, 48.0 KHz) - релиз-группа "Jimmy J."- 1-5 серии
Аудио 2: Русский (AC3, 6 ch, 640 Кбит/с, 48.0 KHz) - студия "Омикрон" (пока только к 1-й серии)
Аудио 3: Украинский (AC3, 6 ch, 640 Кбит/с, 48.0 KHz) - Ю.Онищенко (ник - Logos71) (пока только к 1-й серии)
Аудио 4: Английский (AC3, 6 ch, 640 Кбит/с, 48.0 KHz)

Код: Выделить всё
1 серия:

Complete name               : D:\Раздачи\Planet.Earth.II.720p.BDRip\Planet.Earth.II.Episode1.720p.BDRip.mkv
Format                      : Matroska
Format version              : Version 1
File size                   : 3.15 GiB
Duration                    : 58mn 38s
Overall bit rate            : 7 689 Kbps
Movie name                  : Create by DeTorquemada for HDCLUB
Encoded date                : UTC 2016-12-13 22:07:57
Writing application         : mkvmerge v2.1.0 ('Another Place To Fall') built on Aug 19 2007 13:40:07
Writing library             : libebml v0.7.7 + libmatroska v0.8.1

Video
ID                          : 1
Format                      : AVC
Format/Info                 : Advanced Video Codec
Format profile              : High@L4.1
Format settings, CABAC      : Yes
Format settings, ReFrames   : 7 frames
Codec ID                    : V_MPEG4/ISO/AVC
Duration                    : 58mn 38s
Bit rate                    : 4 976 Kbps
Width                       : 1 280 pixels
Height                      : 720 pixels
Display aspect ratio        : 16:9
Frame rate mode             : Constant
Frame rate                  : 25.000 fps
Color space                 : YUV
Chroma subsampling          : 4:2:0
Bit depth                   : 8 bits
Scan type                   : Progressive
Bits/(Pixel*Frame)          : 0.216
Stream size                 : 2.04 GiB (65%)
Title                       : Планета Земля 2. Эпизод 1: Острова / Planet Earth II. Episode 1: Islands (2016)- realise for HDCLUB
Writing library             : x264 core 148 r2721 72d53ab
Encoding settings           : cabac=1 / ref=7 / deblock=1:-3:-3 / analyse=0x3:0x113 / me=umh / subme=10 / psy=1 / psy_rd=1.00:0.00 / mixed_ref=1 / me_range=32 / chroma_me=1 / trellis=2 / 8x8dct=1 / cqm=0 / deadzone=21,11 / fast_pskip=1 / chroma_qp_offset=-2 / threads=6 / lookahead_threads=1 / sliced_threads=0 / nr=0 / decimate=1 / interlaced=0 / bluray_compat=0 / constrained_intra=0 / bframes=8 / b_pyramid=2 / b_adapt=2 / b_bias=0 / direct=1 / weightb=1 / open_gop=0 / weightp=2 / keyint=250 / keyint_min=25 / scenecut=40 / intra_refresh=0 / rc_lookahead=40 / rc=crf / mbtree=0 / crf=18.0 / qcomp=0.60 / qpmin=0 / qpmax=69 / qpstep=4 / vbv_maxrate=50000 / vbv_bufsize=62500 / crf_max=0.0 / nal_hrd=none / filler=0 / ip_ratio=1.40 / pb_ratio=1.30 / aq=1:0.80
Default                     : Yes
Forced                      : No
Color range                 : Limited
Matrix coefficients         : BT.709

Audio #1
ID                          : 2
Format                      : AC-3
Format/Info                 : Audio Coding 3
Mode extension              : CM (complete main)
Format settings, Endianness : Big
Codec ID                    : A_AC3
Duration                    : 58mn 38s
Bit rate mode               : Constant
Bit rate                    : 640 Kbps
Channel(s)                  : 6 channels
Channel positions           : Front: L C R, Side: L R, LFE
Sampling rate               : 48.0 KHz
Frame rate                  : 31.250 fps (1536 spf)
Compression mode            : Lossy
Stream size                 : 268 MiB (8%)
Title                       : VO (Jimmy J.)
Language                    : Russian
Default                     : Yes
Forced                      : No

Audio #2
ID                          : 3
Format                      : AC-3
Format/Info                 : Audio Coding 3
Mode extension              : CM (complete main)
Format settings, Endianness : Big
Codec ID                    : A_AC3
Duration                    : 58mn 38s
Bit rate mode               : Constant
Bit rate                    : 640 Kbps
Channel(s)                  : 6 channels
Channel positions           : Front: L C R, Side: L R, LFE
Sampling rate               : 48.0 KHz
Frame rate                  : 31.250 fps (1536 spf)
Compression mode            : Lossy
Stream size                 : 268 MiB (8%)
Title                       : DVO (Омикрон)
Language                    : Russian
Default                     : No
Forced                      : No

Audio #3
ID                          : 4
Format                      : AC-3
Format/Info                 : Audio Coding 3
Mode extension              : CM (complete main)
Format settings, Endianness : Big
Codec ID                    : A_AC3
Duration                    : 58mn 38s
Bit rate mode               : Constant
Bit rate                    : 640 Kbps
Channel(s)                  : 6 channels
Channel positions           : Front: L C R, Side: L R, LFE
Sampling rate               : 48.0 KHz
Frame rate                  : 31.250 fps (1536 spf)
Compression mode            : Lossy
Stream size                 : 268 MiB (8%)
Title                       : VO Ukr (Ю.Онищенко)
Language                    : Ukrainian
Default                     : No
Forced                      : No

Audio #4
ID                          : 5
Format                      : AC-3
Format/Info                 : Audio Coding 3
Mode extension              : CM (complete main)
Format settings, Endianness : Big
Codec ID                    : A_AC3
Duration                    : 58mn 38s
Bit rate mode               : Constant
Bit rate                    : 640 Kbps
Channel(s)                  : 6 channels
Channel positions           : Front: L C R, Side: L R, LFE
Sampling rate               : 48.0 KHz
Frame rate                  : 31.250 fps (1536 spf)
Compression mode            : Lossy
Stream size                 : 268 MiB (8%)
Title                       : DD 5.1 @ 640 kbps - Narrated by David Attenborough
Language                    : English
Default                     : No
Forced                      : No

Text #1
ID                          : 6
Format                      : UTF-8
Codec ID                    : S_TEXT/UTF8
Codec ID/Info               : UTF-8 Plain Text
Language                    : Russian
Default                     : Yes
Forced                      : No

Text #2
ID                          : 7
Format                      : UTF-8
Codec ID                    : S_TEXT/UTF8
Codec ID/Info               : UTF-8 Plain Text
Language                    : Ukrainian
Default                     : No
Forced                      : No

Text #3
ID                          : 8
Format                      : UTF-8
Codec ID                    : S_TEXT/UTF8
Codec ID/Info               : UTF-8 Plain Text
Title                       : Subtitles/Captions (SDH)
Language                    : English
Default                     : No
Forced                      : No

Menu
00:00:00.000                : en:
00:11:55.678                : en:
00:18:03.000                : en:
00:32:22.000                : en:
00:41:18.679                : en:
00:49:56.559                : en:

2 серия:

Complete name               : D:\Раздачи\Planet.Earth.II.720p.BDRip\Planet.Earth.II.Episode2.720p.BDRip.mkv
Format                      : Matroska
Format version              : Version 1
File size                   : 2.56 GiB
Duration                    : 58mn 25s
Overall bit rate            : 6 267 Kbps
Encoded date                : UTC 2016-12-17 20:45:21
Writing application         : mkvmerge v2.1.0 ('Another Place To Fall') built on Aug 19 2007 13:40:07
Writing library             : libebml v0.7.7 + libmatroska v0.8.1

Video
ID                          : 1
Format                      : AVC
Format/Info                 : Advanced Video Codec
Format profile              : High@L4.1
Format settings, CABAC      : Yes
Format settings, ReFrames   : 10 frames
Codec ID                    : V_MPEG4/ISO/AVC
Duration                    : 58mn 25s
Bit rate                    : 5 000 Kbps
Width                       : 1 280 pixels
Height                      : 720 pixels
Display aspect ratio        : 16:9
Frame rate mode             : Constant
Frame rate                  : 25.000 fps
Color space                 : YUV
Chroma subsampling          : 4:2:0
Bit depth                   : 8 bits
Scan type                   : Progressive
Bits/(Pixel*Frame)          : 0.217
Stream size                 : 1.98 GiB (78%)
Title                       : Encoded by Fandorin
Writing library             : x264 core 130 r2273 b3065e6
Encoding settings           : cabac=1 / ref=10 / deblock=1:-3:-3 / analyse=0x3:0x133 / me=umh / subme=10 / psy=1 / psy_rd=1.00:0.10 / mixed_ref=1 / me_range=48 / chroma_me=1 / trellis=2 / 8x8dct=1 / cqm=0 / deadzone=21,11 / fast_pskip=0 / chroma_qp_offset=-3 / threads=6 / lookahead_threads=1 / sliced_threads=0 / nr=0 / decimate=1 / interlaced=0 / bluray_compat=0 / constrained_intra=0 / bframes=7 / b_pyramid=2 / b_adapt=2 / b_bias=0 / direct=3 / weightb=1 / open_gop=0 / weightp=2 / keyint=250 / keyint_min=25 / scenecut=40 / intra_refresh=0 / rc_lookahead=40 / rc=2pass / mbtree=1 / bitrate=5000 / ratetol=1.0 / qcomp=0.60 / qpmin=10 / qpmax=51 / qpstep=4 / cplxblur=20.0 / qblur=0.5 / ip_ratio=1.40 / aq=1:1.00
Default                     : Yes
Forced                      : No

Audio #1
ID                          : 2
Format                      : AC-3
Format/Info                 : Audio Coding 3
Mode extension              : CM (complete main)
Format settings, Endianness : Big
Codec ID                    : A_AC3
Duration                    : 58mn 25s
Bit rate mode               : Constant
Bit rate                    : 640 Kbps
Channel(s)                  : 6 channels
Channel positions           : Front: L C R, Side: L R, LFE
Sampling rate               : 48.0 KHz
Frame rate                  : 31.250 fps (1536 spf)
Compression mode            : Lossy
Stream size                 : 267 MiB (10%)
Title                       : VO (Jimmy J.)
Language                    : Russian
Default                     : Yes
Forced                      : No

Audio #2
ID                          : 3
Format                      : AC-3
Format/Info                 : Audio Coding 3
Mode extension              : CM (complete main)
Format settings, Endianness : Big
Codec ID                    : A_AC3
Duration                    : 58mn 25s
Bit rate mode               : Constant
Bit rate                    : 640 Kbps
Channel(s)                  : 6 channels
Channel positions           : Front: L C R, Side: L R, LFE
Sampling rate               : 48.0 KHz
Frame rate                  : 31.250 fps (1536 spf)
Compression mode            : Lossy
Stream size                 : 267 MiB (10%)
Language                    : English
Default                     : No
Forced                      : No

Text #1
ID                          : 4
Format                      : UTF-8
Codec ID                    : S_TEXT/UTF8
Codec ID/Info               : UTF-8 Plain Text
Title                       : Create by avtogen
Language                    : Russian
Default                     : Yes
Forced                      : No

Text #2
ID                          : 5
Format                      : UTF-8
Codec ID                    : S_TEXT/UTF8
Codec ID/Info               : UTF-8 Plain Text
Title                       : Subtitles/Captions (SDH)
Language                    : English
Default                     : No
Forced                      : No

3 серия:

Complete name               : D:\Раздачи\Planet.Earth.II.720p.BDRip\Planet.Earth.II.Episode3.720p.BDRip.mkv
Format                      : Matroska
Format version              : Version 1
File size                   : 2.55 GiB
Duration                    : 58mn 14s
Overall bit rate            : 6 269 Kbps
Encoded date                : UTC 2016-12-18 07:31:04
Writing application         : mkvmerge v2.1.0 ('Another Place To Fall') built on Aug 19 2007 13:40:07
Writing library             : libebml v0.7.7 + libmatroska v0.8.1

Video
ID                          : 1
Format                      : AVC
Format/Info                 : Advanced Video Codec
Format profile              : High@L4.1
Format settings, CABAC      : Yes
Format settings, ReFrames   : 10 frames
Codec ID                    : V_MPEG4/ISO/AVC
Duration                    : 58mn 14s
Bit rate                    : 5 000 Kbps
Width                       : 1 280 pixels
Height                      : 720 pixels
Display aspect ratio        : 16:9
Frame rate mode             : Constant
Frame rate                  : 25.000 fps
Color space                 : YUV
Chroma subsampling          : 4:2:0
Bit depth                   : 8 bits
Scan type                   : Progressive
Bits/(Pixel*Frame)          : 0.217
Stream size                 : 1.98 GiB (78%)
Title                       : Encoded by Fandorin
Writing library             : x264 core 130 r2273 b3065e6
Encoding settings           : cabac=1 / ref=10 / deblock=1:-3:-3 / analyse=0x3:0x133 / me=umh / subme=10 / psy=1 / psy_rd=1.00:0.10 / mixed_ref=1 / me_range=48 / chroma_me=1 / trellis=2 / 8x8dct=1 / cqm=0 / deadzone=21,11 / fast_pskip=0 / chroma_qp_offset=-3 / threads=6 / lookahead_threads=1 / sliced_threads=0 / nr=0 / decimate=1 / interlaced=0 / bluray_compat=0 / constrained_intra=0 / bframes=7 / b_pyramid=2 / b_adapt=2 / b_bias=0 / direct=3 / weightb=1 / open_gop=0 / weightp=2 / keyint=250 / keyint_min=25 / scenecut=40 / intra_refresh=0 / rc_lookahead=40 / rc=2pass / mbtree=1 / bitrate=5000 / ratetol=1.0 / qcomp=0.60 / qpmin=10 / qpmax=51 / qpstep=4 / cplxblur=20.0 / qblur=0.5 / ip_ratio=1.40 / aq=1:1.00
Default                     : Yes
Forced                      : No

Audio #1
ID                          : 2
Format                      : AC-3
Format/Info                 : Audio Coding 3
Mode extension              : CM (complete main)
Format settings, Endianness : Big
Codec ID                    : A_AC3
Duration                    : 58mn 14s
Bit rate mode               : Constant
Bit rate                    : 640 Kbps
Channel(s)                  : 6 channels
Channel positions           : Front: L C R, Side: L R, LFE
Sampling rate               : 48.0 KHz
Frame rate                  : 31.250 fps (1536 spf)
Compression mode            : Lossy
Stream size                 : 267 MiB (10%)
Title                       : VO (Jimmy J.)
Language                    : Russian
Default                     : Yes
Forced                      : No

Audio #2
ID                          : 3
Format                      : AC-3
Format/Info                 : Audio Coding 3
Mode extension              : CM (complete main)
Format settings, Endianness : Big
Codec ID                    : A_AC3
Duration                    : 58mn 14s
Bit rate mode               : Constant
Bit rate                    : 640 Kbps
Channel(s)                  : 6 channels
Channel positions           : Front: L C R, Side: L R, LFE
Sampling rate               : 48.0 KHz
Frame rate                  : 31.250 fps (1536 spf)
Compression mode            : Lossy
Stream size                 : 267 MiB (10%)
Language                    : English
Default                     : No
Forced                      : No

Text #1
ID                          : 4
Format                      : UTF-8
Codec ID                    : S_TEXT/UTF8
Codec ID/Info               : UTF-8 Plain Text
Title                       : Create by avtogen
Language                    : Russian
Default                     : Yes
Forced                      : No

Text #2
ID                          : 5
Format                      : UTF-8
Codec ID                    : S_TEXT/UTF8
Codec ID/Info               : UTF-8 Plain Text
Title                       : Subtitles/Captions (SDH)
Language                    : English
Default                     : No
Forced                      : No

4 серия:

Complete name               : D:\Раздачи\Planet.Earth.II.720p.BDRip\Planet.Earth.II.Episode4.720p.BDRip.mkv
Format                      : Matroska
Format version              : Version 1
File size                   : 2.55 GiB
Duration                    : 58mn 20s
Overall bit rate            : 6 270 Kbps
Encoded date                : UTC 2016-12-18 12:19:41
Writing application         : mkvmerge v2.1.0 ('Another Place To Fall') built on Aug 19 2007 13:40:07
Writing library             : libebml v0.7.7 + libmatroska v0.8.1

Video
ID                          : 1
Format                      : AVC
Format/Info                 : Advanced Video Codec
Format profile              : High@L4.1
Format settings, CABAC      : Yes
Format settings, ReFrames   : 10 frames
Codec ID                    : V_MPEG4/ISO/AVC
Duration                    : 58mn 20s
Bit rate                    : 5 000 Kbps
Width                       : 1 280 pixels
Height                      : 720 pixels
Display aspect ratio        : 16:9
Frame rate mode             : Constant
Frame rate                  : 25.000 fps
Color space                 : YUV
Chroma subsampling          : 4:2:0
Bit depth                   : 8 bits
Scan type                   : Progressive
Bits/(Pixel*Frame)          : 0.217
Stream size                 : 1.98 GiB (78%)
Title                       : Encoded by Fandorin
Writing library             : x264 core 130 r2273 b3065e6
Encoding settings           : cabac=1 / ref=10 / deblock=1:-3:-3 / analyse=0x3:0x133 / me=umh / subme=10 / psy=1 / psy_rd=1.00:0.10 / mixed_ref=1 / me_range=48 / chroma_me=1 / trellis=2 / 8x8dct=1 / cqm=0 / deadzone=21,11 / fast_pskip=0 / chroma_qp_offset=-3 / threads=6 / lookahead_threads=1 / sliced_threads=0 / nr=0 / decimate=1 / interlaced=0 / bluray_compat=0 / constrained_intra=0 / bframes=7 / b_pyramid=2 / b_adapt=2 / b_bias=0 / direct=3 / weightb=1 / open_gop=0 / weightp=2 / keyint=250 / keyint_min=25 / scenecut=40 / intra_refresh=0 / rc_lookahead=40 / rc=2pass / mbtree=1 / bitrate=5000 / ratetol=1.0 / qcomp=0.60 / qpmin=10 / qpmax=51 / qpstep=4 / cplxblur=20.0 / qblur=0.5 / ip_ratio=1.40 / aq=1:1.00
Default                     : Yes
Forced                      : No

Audio #1
ID                          : 2
Format                      : AC-3
Format/Info                 : Audio Coding 3
Mode extension              : CM (complete main)
Format settings, Endianness : Big
Codec ID                    : A_AC3
Duration                    : 58mn 20s
Bit rate mode               : Constant
Bit rate                    : 640 Kbps
Channel(s)                  : 6 channels
Channel positions           : Front: L C R, Side: L R, LFE
Sampling rate               : 48.0 KHz
Frame rate                  : 31.250 fps (1536 spf)
Compression mode            : Lossy
Stream size                 : 267 MiB (10%)
Title                       : VO (Jimmy J.)
Language                    : Russian
Default                     : Yes
Forced                      : No

Audio #2
ID                          : 3
Format                      : AC-3
Format/Info                 : Audio Coding 3
Mode extension              : CM (complete main)
Format settings, Endianness : Big
Codec ID                    : A_AC3
Duration                    : 58mn 20s
Bit rate mode               : Constant
Bit rate                    : 640 Kbps
Channel(s)                  : 6 channels
Channel positions           : Front: L C R, Side: L R, LFE
Sampling rate               : 48.0 KHz
Frame rate                  : 31.250 fps (1536 spf)
Compression mode            : Lossy
Stream size                 : 267 MiB (10%)
Language                    : English
Default                     : No
Forced                      : No

Text #1
ID                          : 4
Format                      : UTF-8
Codec ID                    : S_TEXT/UTF8
Codec ID/Info               : UTF-8 Plain Text
Title                       : Create by avtogen
Language                    : Russian
Default                     : Yes
Forced                      : No

Text #2
ID                          : 5
Format                      : UTF-8
Codec ID                    : S_TEXT/UTF8
Codec ID/Info               : UTF-8 Plain Text
Title                       : Subtitles/Captions (SDH)
Language                    : English
Default                     : No
Forced                      : No

5 серия:

Complete name               : D:\Раздачи\Planet.Earth.II.720p.BDRip\Planet.Earth.II.Episode5.720p.BDRip.mkv
Format                      : Matroska
Format version              : Version 1
File size                   : 3.86 GiB
Duration                    : 58mn 14s
Overall bit rate            : 9 484 Kbps
Movie name                  : avs @ HDChina
Encoded date                : UTC 2016-12-18 10:59:52
Writing application         : mkvmerge v2.1.0 ('Another Place To Fall') built on Aug 19 2007 13:40:07
Writing library             : libebml v0.7.7 + libmatroska v0.8.1

Video
ID                          : 1
Format                      : AVC
Format/Info                 : Advanced Video Codec
Format profile              : High@L4.1
Format settings, CABAC      : Yes
Format settings, ReFrames   : 9 frames
Codec ID                    : V_MPEG4/ISO/AVC
Duration                    : 58mn 14s
Bit rate                    : 8 200 Kbps
Width                       : 1 280 pixels
Height                      : 720 pixels
Display aspect ratio        : 16:9
Frame rate mode             : Constant
Frame rate                  : 25.000 fps
Color space                 : YUV
Chroma subsampling          : 4:2:0
Bit depth                   : 8 bits
Scan type                   : Progressive
Bits/(Pixel*Frame)          : 0.356
Stream size                 : 3.26 GiB (85%)
Title                       : Encoded by avs @ HDC
Writing library             : x264 core 148 r2665kMod a01e339
Encoding settings           : cabac=1 / ref=9 / deblock=1:-3:-3 / analyse=0x3:0x133 / me=umh / subme=11 / psy=1 / fade_compensate=0.00 / psy_rd=1.05:0.00 / mixed_ref=1 / me_range=32 / chroma_me=1 / trellis=2 / 8x8dct=1 / cqm=0 / deadzone=21,11 / fast_pskip=0 / chroma_qp_offset=-2 / threads=22 / lookahead_threads=3 / sliced_threads=0 / nr=0 / decimate=0 / interlaced=0 / bluray_compat=0 / constrained_intra=0 / fgo=0 / bframes=8 / b_pyramid=2 / b_adapt=2 / b_bias=0 / direct=3 / weightb=1 / open_gop=0 / weightp=2 / keyint=240 / keyint_min=24 / scenecut=40 / intra_refresh=0 / rc=2pass / mbtree=0 / bitrate=8200 / ratetol=1.0 / qcomp=0.70 / qpmin=0 / qpmax=69 / qpstep=4 / cplxblur=20.0 / qblur=0.5 / ip_ratio=1.20 / pb_ratio=1.20 / aq=3:0.85
Default                     : Yes
Forced                      : No

Audio #1
ID                          : 2
Format                      : AC-3
Format/Info                 : Audio Coding 3
Mode extension              : CM (complete main)
Format settings, Endianness : Big
Codec ID                    : A_AC3
Duration                    : 58mn 14s
Bit rate mode               : Constant
Bit rate                    : 640 Kbps
Channel(s)                  : 6 channels
Channel positions           : Front: L C R, Side: L R, LFE
Sampling rate               : 48.0 KHz
Frame rate                  : 31.250 fps (1536 spf)
Compression mode            : Lossy
Stream size                 : 267 MiB (7%)
Title                       : VO (Jimmy J.)
Language                    : Russian
Default                     : Yes
Forced                      : No

Audio #2
ID                          : 3
Format                      : AC-3
Format/Info                 : Audio Coding 3
Mode extension              : CM (complete main)
Format settings, Endianness : Big
Codec ID                    : A_AC3
Duration                    : 58mn 14s
Bit rate mode               : Constant
Bit rate                    : 640 Kbps
Channel(s)                  : 6 channels
Channel positions           : Front: L C R, Side: L R, LFE
Sampling rate               : 48.0 KHz
Frame rate                  : 31.250 fps (1536 spf)
Compression mode            : Lossy
Stream size                 : 267 MiB (7%)
Language                    : English
Default                     : No
Forced                      : No

Text #1
ID                          : 4
Format                      : UTF-8
Codec ID                    : S_TEXT/UTF8
Codec ID/Info               : UTF-8 Plain Text
Title                       : Create by avtogen
Language                    : Russian
Default                     : Yes
Forced                      : No

Text #2
ID                          : 5
Format                      : UTF-8
Codec ID                    : S_TEXT/UTF8
Codec ID/Info               : UTF-8 Plain Text
Title                       : Subtitles/Captions (SDH)
Language                    : English
Default                     : No
Forced                      : No

Menu
00:00:00.000                : en:00:00:00.000
00:12:34.280                : en:00:12:34.280
00:21:06.720                : en:00:21:06.720
00:30:14.000                : en:00:30:14.000
00:41:57.000                : en:00:41:57.000
00:48:17.360                : en:00:48:17.360

6 серия:

Complete name               : D:\Раздачи\Planet.Earth.II.720p.BDRip\Planet.Earth.II.Episode6.720p.BDRip.mkv
Format                      : Matroska
Format version              : Version 1
File size                   : 2.86 GiB
Duration                    : 58mn 39s
Overall bit rate            : 6 993 Kbps
Movie name                  : avs @ HDChina
Encoded date                : UTC 2016-12-18 12:32:26
Writing application         : mkvmerge v2.1.0 ('Another Place To Fall') built on Aug 19 2007 13:40:07
Writing library             : libebml v0.7.7 + libmatroska v0.8.1

Video
ID                          : 1
Format                      : AVC
Format/Info                 : Advanced Video Codec
Format profile              : High@L4.1
Format settings, CABAC      : Yes
Format settings, ReFrames   : 9 frames
Codec ID                    : V_MPEG4/ISO/AVC
Duration                    : 58mn 39s
Bit rate                    : 6 350 Kbps
Width                       : 1 280 pixels
Height                      : 720 pixels
Display aspect ratio        : 16:9
Frame rate mode             : Constant
Frame rate                  : 25.000 fps
Color space                 : YUV
Chroma subsampling          : 4:2:0
Bit depth                   : 8 bits
Scan type                   : Progressive
Bits/(Pixel*Frame)          : 0.276
Stream size                 : 2.55 GiB (89%)
Title                       : Encoded by avs @ HDC
Writing library             : x264 core 148 r2665kMod a01e339
Encoding settings           : cabac=1 / ref=9 / deblock=1:-3:-3 / analyse=0x3:0x133 / me=umh / subme=11 / psy=1 / fade_compensate=0.00 / psy_rd=1.05:0.00 / mixed_ref=1 / me_range=32 / chroma_me=1 / trellis=2 / 8x8dct=1 / cqm=0 / deadzone=21,11 / fast_pskip=0 / chroma_qp_offset=-2 / threads=22 / lookahead_threads=3 / sliced_threads=0 / nr=0 / decimate=0 / interlaced=0 / bluray_compat=0 / constrained_intra=0 / fgo=0 / bframes=8 / b_pyramid=2 / b_adapt=2 / b_bias=0 / direct=3 / weightb=1 / open_gop=0 / weightp=2 / keyint=240 / keyint_min=24 / scenecut=40 / intra_refresh=0 / rc=2pass / mbtree=0 / bitrate=6350 / ratetol=1.0 / qcomp=0.70 / qpmin=0 / qpmax=69 / qpstep=4 / cplxblur=20.0 / qblur=0.5 / ip_ratio=1.20 / pb_ratio=1.20 / aq=3:0.85
Default                     : Yes
Forced                      : No

Audio
ID                          : 2
Format                      : AC-3
Format/Info                 : Audio Coding 3
Mode extension              : CM (complete main)
Format settings, Endianness : Big
Codec ID                    : A_AC3
Duration                    : 58mn 39s
Bit rate mode               : Constant
Bit rate                    : 640 Kbps
Channel(s)                  : 6 channels
Channel positions           : Front: L C R, Side: L R, LFE
Sampling rate               : 48.0 KHz
Frame rate                  : 31.250 fps (1536 spf)
Compression mode            : Lossy
Stream size                 : 268 MiB (9%)
Language                    : English
Default                     : Yes
Forced                      : No

Text #1
ID                          : 3
Format                      : UTF-8
Codec ID                    : S_TEXT/UTF8
Codec ID/Info               : UTF-8 Plain Text
Title                       : Create by avtogen
Language                    : Russian
Default                     : Yes
Forced                      : No

Text #2
ID                          : 4
Format                      : UTF-8
Codec ID                    : S_TEXT/UTF8
Codec ID/Info               : UTF-8 Plain Text
Title                       : Subtitles/Captions (SDH)
Language                    : English
Default                     : No
Forced                      : No

Menu
00:00:00.000                : en:00:00:00.000
00:10:54.760                : en:00:10:54.760
00:22:50.400                : en:00:22:50.400
00:29:46.120                : en:00:29:46.120
00:40:00.160                : en:00:40:00.160
00:49:11.160                : en:00:49:11.160
Код: Выделить всё
1 серия - HDCLUB / Автор: DeTorquemada

y4m [info]: 1280x720p 1:1 @ 25/1 fps (cfr)
x264 [info]: using SAR=1/1
x264 [info]: using cpu capabilities: MMX2 SSE2Fast SSSE3 SSE4.2 AVX
x264 [info]: profile High, level 4.1
x264 [info]: frame I:757   Avg QP:18.73  size:136131
x264 [info]: frame P:20284 Avg QP:20.15  size: 51976
x264 [info]: frame B:66835 Avg QP:22.58  size: 16412
x264 [info]: consecutive B-frames:  2.3%  2.6%  8.0% 33.5% 18.4% 27.5%  4.3%  1.9%  1.5%
x264 [info]: mb I  I16..4:  4.9% 78.5% 16.6%
x264 [info]: mb P  I16..4:  1.3% 13.5%  1.8%  P16..4: 38.6% 27.2% 14.8%  0.0%  0.0%    skip: 2.9%
x264 [info]: mb B  I16..4:  0.2%  1.5%  0.3%  B16..8: 38.0% 10.9%  3.2%  direct: 8.5%  skip:37.5%  L0:38.8% L1:39.5% BI:21.7%
x264 [info]: 8x8 transform intra:78.9% inter:67.1%
x264 [info]: coded y,uvDC,uvAC intra: 82.6% 73.4% 40.0% inter: 29.4% 25.8% 4.6%
x264 [info]: i16 v,h,dc,p: 23% 20%  9% 47%
x264 [info]: i8 v,h,dc,ddl,ddr,vr,hd,vl,hu:  6% 11%  7%  9% 14% 11% 16% 10% 15%
x264 [info]: i4 v,h,dc,ddl,ddr,vr,hd,vl,hu:  6%  8%  4%  9% 16% 13% 17% 11% 16%
x264 [info]: i8c dc,h,v,p: 41% 28% 15% 16%
x264 [info]: Weighted P-Frames: Y:7.5% UV:4.1%
x264 [info]: ref P L0: 49.6% 16.5% 16.8%  5.4%  4.9%  3.2%  3.4%  0.2%  0.0%
x264 [info]: ref B L0: 80.1% 10.3%  4.9%  2.6%  1.5%  0.6%
x264 [info]: ref B L1: 95.7%  4.3%
x264 [info]: kb/s:5130.56
encoded 87876 frames, 5.36 fps, 5130.56 kb/s

2 серия - Fандорин

avs [info]: 1280x720p 1:1 @ 25/1 fps (cfr)
x264 [info]: using SAR=1/1
x264 [warning]: DPB size (10 frames, 36000 mbs) > level limit (9 frames, 32768 mbs)
x264 [info]: using cpu capabilities: MMX2 SSE2Fast SSSE3 SSE4.2 AVX
x264 [info]: profile High, level 4.1
x264 [info]: frame I:659   Avg QP:15.85  size:221979
x264 [info]: frame P:25693 Avg QP:18.77  size: 53511
x264 [info]: frame B:61022 Avg QP:22.31  size: 10869
x264 [info]: consecutive B-frames:  6.5%  6.0%  6.9% 59.2%  5.8%  9.3%  1.5%  4.7%
x264 [info]: mb I  I16..4:  5.5% 64.2% 30.3%
x264 [info]: mb P  I16..4:  1.9%  9.4%  1.4%  P16..4: 42.4% 19.5% 19.1%  1.5%  0.9%    skip: 3.9%
x264 [info]: mb B  I16..4:  0.3%  1.1%  0.3%  B16..8: 35.2%  8.6%  2.4%  direct: 5.8%  skip:46.3%  L0:38.5% L1:43.8% BI:17.7%
x264 [info]: 8x8 transform intra:71.5% inter:57.6%
x264 [info]: direct mvs  spatial:95.8% temporal:4.2%
x264 [info]: coded y,uvDC,uvAC intra: 73.0% 69.6% 36.3% inter: 25.0% 25.5% 4.6%
x264 [info]: i16 v,h,dc,p: 34% 23% 10% 34%
x264 [info]: i8 v,h,dc,ddl,ddr,vr,hd,vl,hu:  9% 13% 10%  8% 12% 11% 13% 10% 14%
x264 [info]: i4 v,h,dc,ddl,ddr,vr,hd,vl,hu:  8% 11%  6%  8% 14% 12% 14% 10% 15%
x264 [info]: i8c dc,h,v,p: 46% 25% 15% 14%
x264 [info]: Weighted P-Frames: Y:4.3% UV:1.6%
x264 [info]: ref P L0: 53.8% 16.0% 15.0%  4.2%  3.5%  2.2%  2.0%  1.1%  1.1%  1.0%  0.2%  0.0%
x264 [info]: ref B L0: 79.6%  9.6%  4.1%  2.1%  1.5%  1.3%  1.1%  0.5%  0.3%
x264 [info]: ref B L1: 94.6%  5.4%
x264 [info]: kb/s:5000.13
encoded 87374 frames, 2.30 fps, 5000.13 kb/s

3 серия - Fандорин

avs [info]: 1280x720p 1:1 @ 25/1 fps (cfr)
x264 [info]: using SAR=1/1
x264 [warning]: DPB size (10 frames, 36000 mbs) > level limit (9 frames, 32768 mbs)
x264 [info]: using cpu capabilities: MMX2 SSE2Fast SSSE3 SSE4.2 AVX
x264 [info]: profile High, level 4.1
x264 [info]: frame I:789   Avg QP:16.55  size:156375
x264 [info]: frame P:21281 Avg QP:19.63  size: 55889
x264 [info]: frame B:65031 Avg QP:22.31  size: 13304
x264 [info]: consecutive B-frames:  2.7%  3.4% 11.5% 35.2% 18.0% 24.2%  3.5%  1.7%
x264 [info]: mb I  I16..4:  8.5% 69.2% 22.3%
x264 [info]: mb P  I16..4:  2.2%  9.6%  1.6%  P16..4: 41.6% 20.6% 17.1%  1.8%  0.7%    skip: 4.8%
x264 [info]: mb B  I16..4:  0.3%  1.0%  0.3%  B16..8: 35.1%  8.5%  2.5%  direct: 7.0%  skip:45.3%  L0:38.5% L1:42.7% BI:18.8%
x264 [info]: 8x8 transform intra:70.0% inter:62.3%
x264 [info]: direct mvs  spatial:93.5% temporal:6.5%
x264 [info]: coded y,uvDC,uvAC intra: 75.1% 75.7% 46.8% inter: 23.2% 24.9% 6.3%
x264 [info]: i16 v,h,dc,p: 34% 15%  7% 44%
x264 [info]: i8 v,h,dc,ddl,ddr,vr,hd,vl,hu:  8% 12%  7%  9% 13% 12% 14% 11% 14%
x264 [info]: i4 v,h,dc,ddl,ddr,vr,hd,vl,hu:  7% 11%  5%  9% 14% 12% 15% 11% 16%
x264 [info]: i8c dc,h,v,p: 45% 23% 15% 17%
x264 [info]: Weighted P-Frames: Y:5.2% UV:2.4%
x264 [info]: ref P L0: 48.3% 13.5% 17.7%  5.3%  4.7%  3.0%  2.9%  1.5%  1.6%  1.3%  0.3%  0.0%
x264 [info]: ref B L0: 78.9%  9.9%  4.2%  2.2%  1.6%  1.3%  1.1%  0.5%  0.3%
x264 [info]: ref B L1: 94.3%  5.7%
x264 [info]: kb/s:5000.93
encoded 87101 frames, 2.12 fps, 5000.93 kb/s

4 серия - Fандорин

avs [info]: 1280x720p 1:1 @ 25/1 fps (cfr)
x264 [info]: using SAR=1/1
x264 [warning]: DPB size (10 frames, 36000 mbs) > level limit (9 frames, 32768 mbs)
x264 [info]: using cpu capabilities: MMX2 SSE2Fast SSSE3 SSE4.2 AVX
x264 [info]: profile High, level 4.1
x264 [info]: frame I:652   Avg QP:16.27  size:133725
x264 [info]: frame P:22177 Avg QP:18.75  size: 44581
x264 [info]: frame B:64421 Avg QP:21.11  size: 17176
x264 [info]: consecutive B-frames:  4.8%  5.3%  9.0% 24.9% 14.6% 31.0%  5.1%  5.3%
x264 [info]: mb I  I16..4:  6.8% 78.7% 14.5%
x264 [info]: mb P  I16..4:  2.3% 13.7%  1.3%  P16..4: 41.6% 20.4% 14.9%  0.9%  0.3%    skip: 4.4%
x264 [info]: mb B  I16..4:  0.4%  2.4%  0.6%  B16..8: 38.2% 11.5%  2.8%  direct: 6.6%  skip:37.6%  L0:43.1% L1:41.5% BI:15.4%
x264 [info]: 8x8 transform intra:76.2% inter:63.8%
x264 [info]: direct mvs  spatial:93.7% temporal:6.3%
x264 [info]: coded y,uvDC,uvAC intra: 78.5% 79.2% 47.2% inter: 25.2% 27.7% 4.6%
x264 [info]: i16 v,h,dc,p: 37% 19%  8% 36%
x264 [info]: i8 v,h,dc,ddl,ddr,vr,hd,vl,hu:  8% 13% 11%  8% 11% 10% 13% 10% 16%
x264 [info]: i4 v,h,dc,ddl,ddr,vr,hd,vl,hu:  6%  9%  7%  8% 14% 11% 16% 10% 18%
x264 [info]: i8c dc,h,v,p: 50% 26% 14% 11%
x264 [info]: Weighted P-Frames: Y:3.5% UV:1.5%
x264 [info]: ref P L0: 48.7% 14.8% 15.8%  5.7%  4.5%  3.2%  2.8%  1.6%  1.5%  1.1%  0.2%  0.0%
x264 [info]: ref B L0: 72.1% 11.8%  6.1%  3.2%  2.4%  1.9%  1.6%  0.7%  0.3%
x264 [info]: ref B L1: 93.1%  6.9%
x264 [info]: kb/s:5002.48
encoded 87250 frames, 2.32 fps, 5002.48 kb/s
 
Не забывайте говорить Спасибо. Не уходите с раздачи!   
Торрент: Зарегистрирован [18 дек 2016, 20:22] Для скачивания .torrent
необходима регистрация
Или скачать с помощью
MediaGet
Статус:
Проверен
 
.torrent скачан: 117 раз
Хэш: 27a5cdbf0694bd4973cc7627bfe55a319c867c06
Размер: 17.53 ГБ (18 827 265 873 байт)
Стать Автором раздачи
 
 
Раздал: 100 ГБ
Скачал: 0 байт
Ратио: Seed.
Сообщения: 183103
Зарегистрирован: 09 апр 2015, 20:00


  • Похожие торренты
    Ответы
    Просмотры
    Последнее сообщение

Вернуться в BBC, Discovery, National Geographic (HD Video)

Кто сейчас на конференции

Сейчас эту тему просматривают: нет зарегистрированных пользователей и гости: 1

Ресурс не предоставляет электронные версии произведений, а занимается лишь коллекционированием и каталогизацией ссылок, присылаемых и публикуемых на форуме нашими читателями. Если вы являетесь правообладателем какого-либо представленного материала и не желаете чтобы ссылка на него находилась в нашем каталоге, свяжитесь с нами и мы незамедлительно удалим её. Файлы для обмена на трекере предоставлены пользователями сайта, и администрация не несёт ответственности за их содержание. Просьба не заливать файлы, защищенные авторскими правами, а также файлы нелегального содержания!