Ментовские войны (2010) SATRip [H.264] (сезон 5, серии 1-16 из 16) [MP4|640x360]

 
 Статистика раздачи 
Размер: 2.36 ГБ   |  Зарегистрирован: 18 дек 2016, 17:53   |   .torrent скачан: 0 раз
Сидеров: 1  [ 0 байт/сек ]     Личеров: 0  [ 0 байт/сек ]  
  

Ментовские войны (2010) SATRip [H.264] (сезон 5, серии 1-16 из 16) [MP4|640x360]

Сообщение explosiveone » 18 дек 2016, 17:54

Ментовские войны (2010) SATRip [H.264] (сезон 5, серии 1-16 из 16) [MP4|640x360]

Производство: Россия / "Форвард-фильм", "Панорама"
Жанр: Детектив, Криминал

Режиссер: Алексей Богданов, Алан Дзоциев
Актеры: Александр Устюгов, Дмитрий Быковский-Ромашов, Всеволод Цурило, Роман Громадский, Максим Студеновский, Марина Игнатова, Янина Соколовская, Анатолий Узденский, Татьяна Гончарова, Сергей Кушаков и др...

Описание:
Авторитет Шилова велик и ему снова предлагают возглавить убойный отдел. Шилов собирает старую команду проверенных друзей. В отдел приходят Джексон и Арнаутов. Тем временем череда странных самоубийств среди успешных бизнесменов города заставляет Шилова кое о чем задуматься.Странно, что бизнесмены перед смертью легко и непринужденно продавали свой бизнес. Ощущение, что весь мир сошел с ума, не покидает Шилова. В деле замешан секретный аппарат, воздействующий на психику человека.


Возраст: 16+ (зрителям, достигшим 16 лет)

Продолжительность: ~ 00:46:00 серия
Качество видео: SATRip

Видео: AVC/H.264, 640x360 (16:9), ~391 Kbps
Аудио: AAC, 2 ch, 96.0 Kbps, VBR
Код: Выделить всё
Общее
Полное имя                               : D:\Мои фильмы\Mentovskie_vojny_S5_1-16iz16_2010_XviD_SATRip  mp4\1.Другая река.(1 сер.).mp4
Формат                                   : MPEG-4
Профиль формата                          : Base Media
Идентификатор кодека                     : isom (isom/avc1/iso6)
Размер файла                             : 151 Мбайт
Продолжительность                        : 42 м. 58 с.
Режим общего битрейта                    : Переменный
Общий поток                              : 491 Кбит/сек
Дата кодирования                         : UTC 2016-12-17 07:00:54
Дата пометки                             : UTC 2016-12-17 07:00:54

Видео
Идентификатор                            : 1
Формат                                   : AVC
Формат/Информация                        : Advanced Video Codec
Профиль формата                          : Main@L3
Параметр CABAC формата                   : Нет
Параметр ReFrames формата                : 4 кадра
Идентификатор кодека                     : avc1
Идентификатор кодека/Информация          : Advanced Video Coding
Продолжительность                        : 42 м. 57 с.
Битрейт                                  : 391 Кбит/сек
Максимальный битрейт                     : 1363 Кбит/сек
Ширина                                   : 640 пикселей
Высота                                   : 360 пикселей
Соотношение сторон                       : 16:9
Режим частоты кадров                     : Постоянный
Частота кадров                           : 25,000 кадров/сек
Цветовое пространство                    : YUV
Субдискретизация насыщенности            : 4:2:0
Битовая глубина                          : 8 бит
Тип развёртки                            : Прогрессивная
Бит/(Пиксели*Кадры)                      : 0.068
Размер потока                            : 120 Мбайт (80%)
Библиотека кодирования                   : x264 core 148 r2638 7599210
Настройки программы                      : cabac=0 / ref=3 / deblock=0:0:0 / analyse=0x1:0x111 / me=hex / subme=5 / psy=1 / psy_rd=1.00:0.00 / mixed_ref=1 / me_range=16 / chroma_me=1 / trellis=0 / 8x8dct=0 / cqm=0 / deadzone=21,11 / fast_pskip=1 / chroma_qp_offset=0 / threads=1 / lookahead_threads=1 / sliced_threads=0 / nr=0 / decimate=1 / interlaced=0 / bluray_compat=0 / constrained_intra=0 / bframes=3 / b_pyramid=2 / b_adapt=1 / b_bias=0 / direct=2 / weightb=0 / open_gop=0 / weightp=0 / keyint=250 / keyint_min=25 / scenecut=40 / intra_refresh=0 / rc=2pass / mbtree=0 / bitrate=391 / ratetol=1.0 / qcomp=0.60 / qpmin=10 / qpmax=51 / qpstep=4 / cplxblur=20.0 / qblur=0.5 / ip_ratio=1.40 / pb_ratio=1.30 / aq=1:1.00
Дата кодирования                         : UTC 2016-12-17 07:00:54
Дата пометки                             : UTC 2016-12-17 07:00:59

Аудио
Идентификатор                            : 2
Формат                                   : AAC
Формат/Информация                        : Advanced Audio Codec
Профиль формата                          : LC
Идентификатор кодека                     : 40
Продолжительность                        : 42 м. 58 с.
Вид битрейта                             : Переменный
Битрейт                                  : 96,0 Кбит/сек
Максимальный битрейт                     : 101 Кбит/сек
Каналы                                   : 2 канала
Расположение каналов                     : Front: L R
Частота                                  : 48,0 КГц
Частота кадров                           : 46,875 кадров/сек (1024 spf)
Метод сжатия                             : С потерями
Размер потока                            : 29,5 Мбайт (20%)
Язык                                     : English
Дата кодирования                         : UTC 2016-12-17 06:32:07
Дата пометки                             : UTC 2016-12-17 07:00:59
Фильм №1:
Другая река (1-4 серии)

Два раза в одну реку войти невозможно. Но если река уже и так другая... Шилов возвращается в родной убойный отдел и обнаруживает для себя в повседневной работе много нового. Но это не мешает ему наладить отношения с молодёжью. Дело, которое предстоит расследовать Шилову и его подчинённым, касается странного поведения некоторых бизнесменов и работников правоохранительных органов. Кто-то убивает, а кто-то умирает сам, добровольно. Кто стоит за всем этим?

Фильм №2:
С чистой совестью (1-4 серии)

В городе стали появляться отбывшие срок уголовники. Правда, не все вышли на свободу с чистой совестью. Одним не по нраву изменившаяся жизнь, другие хотят отомстить бывшим подельникам, отвертевшимся от суда и следствия...

Фильм №3:
Лицом к лицу (1-4 серии)

Большие деньги порождают большие проблемы. Иногда кажется, что эти проблемы можно решить с помощью пластической хирургии, но чаще из-за неё могут возникнуть новые проблемы, ещё хуже прежних...

Фильм №4:
Голова Медузы (1-4 серии)

Серия, казалось бы, бытовых убийств простых таксистов выводит Шилова с коллегами на след крупной группировки по торговле наркотиками. Следы тянутся на самый верх...

Скриншоты:



Время раздачи: с 07:00 до 23:00 (до появления первых 3-5 скачавших)
 
Не забывайте говорить Спасибо. Не уходите с раздачи!   
Торрент: Зарегистрирован [18 дек 2016, 17:53] Для скачивания .torrent
необходима регистрация
Или скачать с помощью
MediaGet
Статус:
Проверен
 
.torrent скачан: 0 раз
Хэш: 0e41e1a9a9245da38dd8aeeedfe4675ed1a5b19b
Размер: 2.36 ГБ (2 531 895 530 байт)
Стать Автором раздачи
 
 
Раздал: 100 ГБ
Скачал: 0 байт
Ратио: Seed.
Сообщения: 94005
Зарегистрирован: 09 апр 2015, 22:31


  • Похожие торренты
    Ответы
    Просмотры
    Последнее сообщение

Вернуться в Видео для мобильных устройств

Ресурс не предоставляет электронные версии произведений, а занимается лишь коллекционированием и каталогизацией ссылок, присылаемых и публикуемых на форуме нашими читателями. Если вы являетесь правообладателем какого-либо представленного материала и не желаете чтобы ссылка на него находилась в нашем каталоге, свяжитесь с нами и мы незамедлительно удалим её. Файлы для обмена на трекере предоставлены пользователями сайта, и администрация не несёт ответственности за их содержание. Просьба не заливать файлы, защищенные авторскими правами, а также файлы нелегального содержания!
cron