Битва экстрасенсов (2016.12.17) WEB-DL [H.264/720p-LQ] (сезон 17, выпуск 16)

 
 Статистика раздачи 
Размер: 1.92 ГБ   |  Зарегистрирован: 18 дек 2016, 00:46   |   .torrent скачан: 0 раз
Сидеров: 1  [ 0 байт/сек ]     Личеров: 0  [ 0 байт/сек ]  
  

Битва экстрасенсов (2016.12.17) WEB-DL [H.264/720p-LQ] (сезон 17, выпуск 16)

Сообщение explosiveone » 18 дек 2016, 00:46

Битва экстрасенсов (2016.12.17) WEB-DL [H.264/720p-LQ] (сезон 17, выпуск 16)

Телекомпания: ТНТ
Жанр: Реалити Шоу

Ведущий: Марат Башаров

Описание:
С 3 сентября на ТНТ стартует долгожданный 17-й сезон «Битвы экстрасенсов» — самого мистического, непредсказуемого и загадочного проекта российского ТВ. Масштабный кастинг, новые яркие участники и высокие технологии в мире экстрасенсорики. Новый сезон обещает стать самым необычным и удивительным в истории шоу. «Мне бы очень хотелось, чтобы в новом сезоне экстрасенсы поменьше обращали бы внимание на свою самореализацию, а больше помогали людям. Ведь каждый сезон к нам обращаются те, кто действительно ждет помощи. И это, по-моему, для людей со сверхспособностями должно быть приоритетным!», — Марат Башаров, ведущий проекта.

Продолжительность: ~ 01:12:44
Качество видео: WEB-DL
Субтитры: Отсутствуют

Видео: AVC, 1280x720 (16:9), 25.000 fps, 3 503 Kbps (0.076 bit/pixel)
Аудио: AC-3, 48.0 KHz, 2 ch, 192 Kbps, CBR
Код:  Общее
Уникальный идентификатор                 : 195484036542550914068148543408549608513 (0x9310DB205F15B61A9E263422D0233C41)
Полное имя                               : D:\[1]\Битва экстрасенсов\Битва экстрасенсов. Сезон 17. Выпуск 16 (2016.12.17)_720.mkv
Формат                                   : Matroska
Версия формата                           : Version 2
Размер файла                             : 1,92 Гбайт
Продолжительность                        : 1 ч. 12 м.
Общий поток                              : 3770 Кбит/сек
Дата кодирования                         : UTC 2016-12-17 19:45:32
Программа кодирования                    : mkvmerge v7.9.0 ('Birds') 64bit
Библиотека кодирования                   : libebml v1.3.1 + libmatroska v1.4.2
DURATION                                 : 01:12:44.256000000
NUMBER_OF_FRAMES                         : 136383
NUMBER_OF_BYTES                          : 104742144
_STATISTICS_WRITING_APP                  : mkvmerge v7.9.0 ('Birds') 64bit
_STATISTICS_WRITING_DATE_UTC             : 2016-12-17 19:45:32
_STATISTICS_TAGS                         : BPS DURATION NUMBER_OF_FRAMES NUMBER_OF_BYTES

Видео
Идентификатор                            : 1
Формат                                   : AVC
Формат/Информация                        : Advanced Video Codec
Профиль формата                          :
Параметр CABAC формата                   : Да
Параметр ReFrames формата                : 1 кадр
Параметр GOP формата                     : M=1, N=12
Идентификатор кодека                     : V_MPEG4/ISO/AVC
Продолжительность                        : 1 ч. 12 м.
Битрейт                                  : 3503 Кбит/сек
Ширина                                   : 1280 пикселей
Высота                                   : 720 пикселей
Соотношение сторон                       : 16:9
Режим частоты кадров                     : Постоянный
Частота кадров                           : 25,000 кадров/сек
Стандарт вещания                         : Component
Цветовое пространство                    : YUV
Субдискретизация насыщенности            : 4:2:0
Битовая глубина                          : 8 бит
Тип развёртки                            : Прогрессивная
Бит/(Пиксели*Кадры)                      : 0.152
Размер потока                            : 1,78 Гбайт (93%)
Default                                  : Да
Forced                                   : Нет
Цветовой диапазон                        : Limited

Аудио
Идентификатор                            : 2
Формат                                   : AC-3
Формат/Информация                        : Audio Coding 3
Расширение режима                        : CM (complete main)
Параметр Endianness формата              : Big
Идентификатор кодека                     : A_AC3
Продолжительность                        : 1 ч. 12 м.
Вид битрейта                             : Постоянный
Битрейт                                  : 192 Кбит/сек
Каналы                                   : 2 канала
Расположение каналов                     : Front: L R
Частота                                  : 48,0 КГц
Битовая глубина                          : 16 бит
Метод сжатия                             : С потерями
Размер потока                            : 99,9 Мбайт (5%)
Default                                  : Да
Forced                                   : Нет
 

Скриншоты:


Время раздачи: 24/7. До первых 5 скачавших.
 
Не забывайте говорить Спасибо. Не уходите с раздачи!   
Торрент: Зарегистрирован [18 дек 2016, 00:46] Для скачивания .torrent
необходима регистрация
Или скачать с помощью
MediaGet
Статус:
Проверен
 
.torrent скачан: 0 раз
Хэш: 23bb6607c9bc9289f42257c76e86bd9d5207f72e
Размер: 1.92 ГБ (2 056 892 686 байт)
Стать Автором раздачи
 
 
Раздал: 100 ГБ
Скачал: 0 байт
Ратио: Seed.
Сообщения: 82289
Зарегистрирован: 09 апр 2015, 22:31


  • Похожие торренты
    Ответы
    Просмотры
    Последнее сообщение

Вернуться в Паранормальные явления

Кто сейчас на конференции

Сейчас эту тему просматривают: нет зарегистрированных пользователей и гости: 1

Ресурс не предоставляет электронные версии произведений, а занимается лишь коллекционированием и каталогизацией ссылок, присылаемых и публикуемых на форуме нашими читателями. Если вы являетесь правообладателем какого-либо представленного материала и не желаете чтобы ссылка на него находилась в нашем каталоге, свяжитесь с нами и мы незамедлительно удалим её. Файлы для обмена на трекере предоставлены пользователями сайта, и администрация не несёт ответственности за их содержание. Просьба не заливать файлы, защищенные авторскими правами, а также файлы нелегального содержания!