Сахарная гора / Sugar Mountain (2016) WEB-DLRip [H.264] [MP4|1024x428]

 
 Статистика раздачи 
Размер: 1.76 ГБ   |  Зарегистрирован: 17 дек 2016, 23:40   |   .torrent скачан: 0 раз
Сидеров: 1  [ 0 байт/сек ]     Личеров: 0  [ 0 байт/сек ]  
  

Сахарная гора / Sugar Mountain (2016) WEB-DLRip [H.264] [MP4|1024x428]

Сообщение explosiveone » 17 дек 2016, 23:40

Сахарная гора / Sugar Mountain (2016) WEB-DLRip


Производство: США / Yellow Brick Films
Жанр: Детектив, Триллер

Режиссер: Ричард Грэй
Актеры: Джейсон Момоа, Кэри Элвис, Анна Хатчисон, Мелора Уолтерс, Джон Карна, Дрю Рой, Хейли Уэбб, Шэйн Цвинер, Стив Музакис, Кроуфорд Уилсон

Описание:
Двое братьев, которым все время не везет, оказываются в центре событий на Аляске. Перед ними открывается одно дело, которое они могут поведать миру и прославиться. Но правда ли все это или им просто кажется? Им придется выживать в пустыне и бороться за свое место под солнцем.


Возраст: этот продукт не был классифицирован

Релиз от: NNMClub
Продолжительность: 01:46:30
Качество видео: WEB-DLRip
Перевод: Двуголосый закадровый- (RecentFilm)
Вид субтитров: Вшитые отключаемые
Язык субтитров: Английский

Видео: AVC/H.264 (Main@L3.1), 1024x428 (2.40:1), 2100 Кбит/сек
Аудио #1: AAC, 2 канала, 128 Кбит/сек - русский (двуголосый закадровый)
Аудио #2: AAC, 2 канала, 128 Кбит/сек - английский
Код:
General
Complete name                            : C:\CREATE\264mod1\out\Sugar.Mountain.2016.576p.WEB-DLRip.AAC.h264.NNMclub.mp4
Format                                   : MPEG-4
Format profile                           : Base Media / Version 2
Codec ID                                 : mp42 (mp42/isom)
File size                                : 1.76 GiB
Duration                                 : 1 h 46 min
Overall bit rate mode                    : Variable
Overall bit rate                         : 2 362 kb/s
Movie name                               : Sugar Mountain
Performer                                : Richard Gray
Director                                 : Richard Gray
Actor                                    : Jason Momoa / Cary Elwes / Shane Coffey / Haley Webb / Drew Roy / John Karna / Anna Hutchison / Melora Walters
Screenplay by                            : Abe Pogos / Catherine Hill
Producer                                 : Michele Davis Gray / Nick Farnell / John Garrett / Virginia Kay / Jamie Houge
Genre                                    : Thriller
ContentType                              : Short Film
Description                              : Now in Theaters! To avoid a debt to a local thug (Jason Momoa), two brothers plan to fake a disappearance on an Alaskan mountaintop. But as the sheriff (Cary Elwes) becomes suspicious, the hoax turns real and a dangerous man is looking for blood.  iTunes extras includes an exclusive alternate ending!
Recorded date                            : 2016-12-09
Encoded date                             : UTC 2016-12-17 19:52:11
Tagged date                              : UTC 2016-12-17 19:57:42
Copyright                                : 2016 Sugar Mountain LLC © 2016 Screen Media Films
Cover                                    : Yes
LongDescription                          : Now in Theaters! To avoid a debt to a local thug (Jason Momoa), two brothers plan to fake a disappearance on an Alaskan mountaintop. But as the sheriff (Cary Elwes) becomes suspicious, the hoax turns real and a dangerous man is looking for blood.  iTunes extras includes an exclusive alternate ending!
AppleStoreCountry                        : United States
AppleStoreCatalogID                      : 1168177087
ContentRating                            : mpaa|NR|000|

Video
ID                                       : 1
Format                                   : AVC
Format/Info                              : Advanced Video Codec
Format profile                           :
Format settings, CABAC                   : Yes
Format settings, ReFrames                : 3 frames
Codec ID                                 : avc1
Codec ID/Info                            : Advanced Video Coding
Duration                                 : 1 h 46 min
Bit rate                                 : 2 100 kb/s
Width                                    : 1 024 pixels
Height                                   : 428 pixels
Display aspect ratio                     : 2.40:1
Frame rate mode                          : Variable
Frame rate                               : 23.976 (24000/1001) FPS
Minimum frame rate                       : 23.810 FPS
Maximum frame rate                       : 24.390 FPS
Color space                              : YUV
Chroma subsampling                       : 4:2:0
Bit depth                                : 8 bits
Scan type                                : Progressive
Bits/(Pixel*Frame)                       : 0.200
Stream size                              : 1.56 GiB (89%)
Writing library                          : x264 core 148 r2744+55 950084e t_mod_Custom [8-bit@all X86_64]
Encoding settings                        : cabac=1 / ref=3 / deblock=1:-1:-1 / analyse=0x1:0x131 / me=umh / subme=7 / psy=1 / fade_compensate=0.00 / psy_rd=1.00:0.20 / mixed_ref=1 / me_range=32 / chroma_me=1 / trellis=2 / 8x8dct=0 / cqm=0 / deadzone=21,11 / fast_pskip=0 / chroma_qp_offset=-3 / threads=13 / lookahead_threads=2 / sliced_threads=0 / nr=0 / decimate=0 / interlaced=0 / bluray_compat=0 / constrained_intra=0 / fgo=3 / bframes=3 / b_pyramid=1 / b_adapt=2 / b_bias=0 / direct=3 / weightb=1 / open_gop=0 / weightp=2 / keyint=240 / keyint_min=23 / scenecut=40 / intra_refresh=0 / rc_lookahead=60 / rc=2pass / mbtree=1 / bitrate=2100 / ratetol=1.0 / qcomp=0.60 / qpmin=0:0:0 / qpmax=69:69:69 / qpstep=4 / cplxblur=20.0 / qblur=0.5 / vbv_maxrate=10000 / vbv_bufsize=10000 / nal_hrd=none / filler=0 / ip_ratio=1.40 / aq=3:0.90 / aq-sensitivity=10.00 / aq-factor=1.00:1.00:1.00 / aq2=1:0.90 / aq2-sensitivity=15.00 / aq2-factor=1.00:1.00:1.00 / aq3=3:[0.50:0.50]:[0.50:0.50]:[0.50:0.50]:[0.50:0.50] / aq3-sensitivity=10.00 / aq3-factor=[1.00:1.00]:[1.00:1.00]:[1.00:1.00] / aq3-boundary=192:64:24
Encoded date                             : UTC 2016-12-17 19:52:11
Tagged date                              : UTC 2016-12-17 19:57:41
Color range                              : Limited
Color primaries                          : BT.709
Transfer characteristics                 : BT.709
Matrix coefficients                      : BT.709
Menus                                    : 5

Audio #1
ID                                       : 2
Format                                   : AAC
Format/Info                              : Advanced Audio Codec
Format profile                           : LC
Codec ID                                 : 40
Duration                                 : 1 h 46 min
Source duration                          : 1 h 46 min
Bit rate mode                            : Variable
Bit rate                                 : 128 kb/s
Maximum bit rate                         : 132 kb/s
Channel(s)                               : 2 channels
Channel positions                        : Front: L R
Sampling rate                            : 48.0 kHz
Frame rate                               : 46.875 FPS (1024 spf)
Compression mode                         : Lossy
Stream size                              : 97.5 MiB (5%)
Source stream size                       : 97.5 MiB (5%)
Language                                 : Russian
Default                                  : Yes
Alternate group                          : 1
Encoded date                             : UTC 2016-12-17 19:52:11
Tagged date                              : UTC 2016-12-17 19:57:41

Audio #2
ID                                       : 3
Format                                   : AAC
Format/Info                              : Advanced Audio Codec
Format profile                           : LC
Codec ID                                 : 40
Duration                                 : 1 h 46 min
Source duration                          : 1 h 46 min
Bit rate mode                            : Variable
Bit rate                                 : 128 kb/s
Maximum bit rate                         : 133 kb/s
Channel(s)                               : 2 channels
Channel positions                        : Front: L R
Sampling rate                            : 48.0 kHz
Frame rate                               : 46.875 FPS (1024 spf)
Compression mode                         : Lossy
Stream size                              : 97.5 MiB (5%)
Source stream size                       : 97.5 MiB (5%)
Language                                 : English
Default                                  : No
Alternate group                          : 1
Encoded date                             : UTC 2016-12-17 19:52:11
Tagged date                              : UTC 2016-12-17 19:57:41

Text
ID                                       : 4
Format                                   : Timed Text
Muxing mode                              : sbtl
Codec ID                                 : tx3g
Duration                                 : 1 h 42 min
Bit rate mode                            : Variable
Bit rate                                 : 52 b/s
Stream size                              : 38.6 KiB (0%)
Language                                 : English
Default                                  : Yes
Forced                                   : No
Alternate group                          : 2
Encoded date                             : UTC 2016-12-17 19:52:11
Tagged date                              : UTC 2016-12-17 19:57:41

Menu
ID                                       : 5
Codec ID                                 : text
Duration                                 : 1 h 46 min
Language                                 : English
Encoded date                             : UTC 2016-12-17 19:57:42
Tagged date                              : UTC 2016-12-17 19:57:42
Menu For                                 : 1
00:00:00.000                             : Chapter 1
00:10:08.608                             : Chapter 2
00:19:54.193                             : Chapter 3
00:31:04.863                             : Chapter 4
00:41:47.505                             : Chapter 5
00:50:07.004                             : Chapter 6
01:01:45.702                             : Chapter 7
01:09:26.162                             : Chapter 8
01:20:06.802                             : Chapter 9
01:28:46.321                             : Chapter 10
01:42:30.144                             : Chapter 11
Bit rate mode                            : VBR


Скриншоты:



Время раздачи: 24/7 (круглосуточно) (до появления первых 3-5 скачавших)
 
Не забывайте говорить Спасибо. Не уходите с раздачи!   
Торрент: Зарегистрирован [17 дек 2016, 23:40] Для скачивания .torrent
необходима регистрация
Или скачать с помощью
MediaGet
Статус:
Проверен
 
.torrent скачан: 0 раз
Хэш: c161e0137cf4ac9f6a75a7b5aeef5bcda41fe8fe
Размер: 1.76 ГБ (1 887 101 468 байт)
Стать Автором раздачи
 
 
Раздал: 100 ГБ
Скачал: 0 байт
Ратио: Seed.
Сообщения: 94059
Зарегистрирован: 09 апр 2015, 22:31


  • Похожие торренты
    Ответы
    Просмотры
    Последнее сообщение

Вернуться в Видео для мобильных устройств

Ресурс не предоставляет электронные версии произведений, а занимается лишь коллекционированием и каталогизацией ссылок, присылаемых и публикуемых на форуме нашими читателями. Если вы являетесь правообладателем какого-либо представленного материала и не желаете чтобы ссылка на него находилась в нашем каталоге, свяжитесь с нами и мы незамедлительно удалим её. Файлы для обмена на трекере предоставлены пользователями сайта, и администрация не несёт ответственности за их содержание. Просьба не заливать файлы, защищенные авторскими правами, а также файлы нелегального содержания!
cron