Раскрывая мистические тайны. Деревенская магия (2016) SATRip

 
 Статистика раздачи 
Размер: 578.38 МБ   |  Зарегистрирован: 17 дек 2016, 20:38   |   .torrent скачан: 1 раз
Сидеров: 1  [ 0 байт/сек ]     Личеров: 0  [ 0 байт/сек ]  
  

Раскрывая мистические тайны. Деревенская магия (2016) SATRip

Сообщение explosiveone » 17 дек 2016, 20:39

Раскрывая мистические тайны. Деревенская магия (2016) SATRip

Производство: Москва Медиа
Жанр: Документальный

Описание:
В древности в каждом небольшом селе или в деревне был свой колдун – человек, которого одновременно почитали и боялись и к которому обращались за помощью. Их называли "ведунами", потому что они "ведали", знали то, что неподвластно обычному человеку. Они лечили людей от болезней, гадали на будущее, но могли и наслать страшную порчу, из-за которой умрут все жители села до единого. Кто же такие деревенские колдуны и откуда у них паранормальные способности? Они посланники высших сил или же они продали душу дьяволу, а взамен получили власть над жизнью и смертью? Живут ли ведуны и знахари в современных деревнях и обращаются ли к ним люди за помощью? И действительно ли работают обряды, заговоры, привороты, которыми владеют деревенские маги? Чем отличаются колдуны от знахарей? Почему одни лечат, а другие неизбежно калечат?

Продолжительность: 00:44:00
Качество видео: SATRip
Субтитры: Отсутствуют

Видео: MPEG4, XviD, 704x384 (16:9), 25.000 fps, 1 700 Kbps (0.252 bit/pixel)
Аудио: MP3, 44.1 KHz, 2 ch, 128 Kbps, CBR
Код:  Общее
Полное имя                               : D:\[1]\Раскрывая мистические тайны\Раскрывая мистические тайны. Деревенская магия (2016).avi
Формат                                   : AVI
Формат/Информация                        : Audio Video Interleave
Размер файла                             : 578 Мбайт
Продолжительность                        : 44 м.
Общий поток                              : 1838 Кбит/сек
Программа кодирования                    : VirtualDubMod 1.5.10.3 | www.virtualdub-fr.org || (build 2550/release)
Библиотека кодирования                   : VirtualDubMod build 2550/release

Видео
Идентификатор                            : 0
Формат                                   : MPEG-4 Visual
Профиль формата                          : Advanced Simple@L5
Параметр BVOP формата                    : 1
Параметр QPel формата                    : Нет
Параметр GMC формата                     : Без точки перехода
Параметр матрицы формата                 : Default (H.263)
Идентификатор кодека                     : XVID
Идентификатор кодека/Подсказка           : XviD
Продолжительность                        : 44 м.
Битрейт                                  : 1700 Кбит/сек
Ширина                                   : 704 пикселя
Высота                                   : 384 пикселя
Соотношение сторон                       : 1,85:1
Частота кадров                           : 25,000 кадров/сек
Цветовое пространство                    : YUV
Субдискретизация насыщенности            : 4:2:0
Битовая глубина                          : 8 бит
Тип развёртки                            : Прогрессивная
Метод сжатия                             : С потерями
Бит/(Пиксели*Кадры)                      : 0.252
Размер потока                            : 535 Мбайт (93%)
Библиотека кодирования                   : XviD 1.2.1 (UTC 2008-12-04)

Аудио
Идентификатор                            : 1
Формат                                   : MPEG Audio
Версия формата                           : Version 1
Профиль формата                          : Layer 3
Идентификатор кодека                     : 55
Идентификатор кодека/Подсказка           : MP3
Продолжительность                        : 44 м.
Вид битрейта                             : Постоянный
Битрейт                                  : 128 Кбит/сек
Каналы                                   : 2 канала
Частота                                  : 44,1 КГц
Метод сжатия                             : С потерями
Размер потока                            : 40,3 Мбайт (7%)
Выравнивание                             : Разделение по промежуткам
Продолжительность промежутка             : 40  мс. (1,00 видеокадр)
Время предзагрузки промежутка            : 500  мс.
Библиотека кодирования                   : LAME3.99r
Настройки программы                      : -m s -V 4 -q 2 -lowpass 17 -b 128
 

Скриншоты:



Время раздачи: 24/7. До первых 5 скачавших.
 
Не забывайте говорить Спасибо. Не уходите с раздачи!   
Торрент: Зарегистрирован [17 дек 2016, 20:38] Для скачивания .torrent
необходима регистрация
Или скачать с помощью
MediaGet
Статус:
Проверен
 
.torrent скачан: 1 раз
Хэш: 0dbf7358a1ac81ff44e78d4108e46b83998c89ed
Размер: 578.38 МБ (606 472 192 байт)
Стать Автором раздачи
 
 
Раздал: 100 ГБ
Скачал: 0 байт
Ратио: Seed.
Сообщения: 85674
Зарегистрирован: 09 апр 2015, 22:31


  • Похожие торренты
    Ответы
    Просмотры
    Последнее сообщение

Вернуться в Паранормальные явления

Кто сейчас на конференции

Сейчас эту тему просматривают: нет зарегистрированных пользователей и гости: 1

Ресурс не предоставляет электронные версии произведений, а занимается лишь коллекционированием и каталогизацией ссылок, присылаемых и публикуемых на форуме нашими читателями. Если вы являетесь правообладателем какого-либо представленного материала и не желаете чтобы ссылка на него находилась в нашем каталоге, свяжитесь с нами и мы незамедлительно удалим её. Файлы для обмена на трекере предоставлены пользователями сайта, и администрация не несёт ответственности за их содержание. Просьба не заливать файлы, защищенные авторскими правами, а также файлы нелегального содержания!