Землетрясение (2016) WEB-DLRip [H.264] [MP4|1024x428]

 
 Статистика раздачи 
Размер: 1.56 ГБ   |  Зарегистрирован: 17 дек 2016, 15:32   |   .torrent скачан: 0 раз
Сидеров: 1  [ 0 байт/сек ]     Личеров: 0  [ 0 байт/сек ]  
  

Землетрясение (2016) WEB-DLRip [H.264] [MP4|1024x428]

Сообщение explosiveone » 17 дек 2016, 15:32

Землетрясение (2016) WEB-DLRip

«Трагедия, объединившая мир»

Производство: Россия, Армения / Mars Media Entertainment, National Cinema Centre of Armenia
Жанр: Драма

Режиссер: Сарик Андреасян
Актеры: Константин Лавроненко, Мария Миронова мл., Виктор Степанян, Татев Овакимян, Михаил Погосян, Грант Тохатян, Даниил Изотов, Микаэль Джанибекян, Сос Джанибекян, Арсен Григорян

Описание:
7 декабря 1988 года в Армении произошло землетрясение, охватившее почти половину территории республики. Были разрушены города Спитак, Ленинакан, Кировакан, Степанаван и ещё более 300 населённых пунктов. 25 тысяч человек погибли, 19 тысяч стали инвалидами, больше полумиллиона остались без крыши над головой.На фоне природной катастрофы разворачивается история двух героев — 45-летнего Константина Бережного и 20-летнего Роберта Мелконяна. Судьба сталкивает их не впервые — много лет назад в автокатастрофе по вине Бережного погибли родители Роберта. Константин провел несколько лет в тюрьме, а маленького Роберта приютили родственники. По странному стечению обстоятельств Бережной возвращается к своей семье в день страшного землетрясения: его ждут жена, дочь, сын... и Роберт, который так и не простил ему гибели своих родителей. По иронии судьбы, герои оказываются в одном спасательном отряде, но узнают друг друга не сразу.


Возраст: этот продукт не был классифицирован

Релиз от: NNMClub
Продолжительность: 01:40:03
Качество видео: WEB-DLRip
Перевод: Не требуется, Русский - (iTunes)
Вид субтитров: Отсутствуют

Видео: AVC/H.264 (Main@L3.1), 1024x428 (2.40:1), 2100 Кбит/сек
Аудио #1: AAC, 2 канала, 128 Кбит/сек - русский
Код:
General
Complete name                            : C:\DGI\Землетрясение.2016.576p.WEB-DLRip.AAC.h264.NNMclub.mp4
Format                                   : MPEG-4
Format profile                           : Base Media / Version 2
Codec ID                                 : mp42 (mp42/isom)
File size                                : 1.56 GiB
Duration                                 : 1 h 40 min
Overall bit rate mode                    : Variable
Overall bit rate                         : 2 233 kb/s
Movie name                               : Землетрясение
Performer                                : Сарик Андреасян
Director                                 : Сарик Андреасян
Actor                                    : Константин Лавроненко / Мария Миронова / Виктор Степанян / Татев Овакимян / Михаил Погосян
Producer                                 : Рубен Дишдишян / Арам Мовсесян
Genre                                    : Драма
ContentType                              : Short Film
Description                              : На фоне природной катастрофы разворачивается история двух героев — 45-летнего Константина Бережного
Recorded date                            : 2016-09-12
Encoded date                             : UTC 2016-12-17 10:15:36
Tagged date                              : UTC 2016-12-17 10:22:31
Copyright                                : © Марс Медиа Энтертейнмент
Cover                                    : Yes
LongDescription                          : На фоне природной катастрофы разворачивается история двух героев — 45-летнего Константина Бережного и 20-летнего Роберта Мелконяна. Судьба сталкивает их не впервые — много лет назад в автокатастрофе по вине Бережного погибли родители Роберта. Константин провел несколько лет в тюрьме, а маленького Роберта приютили родственники. По странному стечению обстоятельств Бережной возвращается к своей семье в день страшного землетрясения: его ждут жена, дочь, сын… и Роберт, который так и не простил ему гибели своих родителей. По иронии судьбы, герои оказываются в одном спасательном отряде, но узнают друг друга не сразу.
AppleStoreCountry                        : Unknown Country
AppleStoreCatalogID                      : 1178010318
ContentRating                            : ru-movie|12+|200|

Video
ID                                       : 1
Format                                   : AVC
Format/Info                              : Advanced Video Codec
Format profile                           :
Format settings, CABAC                   : Yes
Format settings, ReFrames                : 3 frames
Codec ID                                 : avc1
Codec ID/Info                            : Advanced Video Coding
Duration                                 : 1 h 40 min
Bit rate                                 : 2 100 kb/s
Width                                    : 1 024 pixels
Height                                   : 428 pixels
Display aspect ratio                     : 2.40:1
Frame rate mode                          : Constant
Frame rate                               : 25.000 FPS
Color space                              : YUV
Chroma subsampling                       : 4:2:0
Bit depth                                : 8 bits
Scan type                                : Progressive
Bits/(Pixel*Frame)                       : 0.192
Stream size                              : 1.47 GiB (94%)
Writing library                          : x264 core 148 r2744+55 950084e t_mod_Custom [8-bit@all X86_64]
Encoding settings                        : cabac=1 / ref=3 / deblock=1:-1:-1 / analyse=0x1:0x131 / me=umh / subme=7 / psy=1 / fade_compensate=0.00 / psy_rd=1.00:0.00 / mixed_ref=1 / me_range=32 / chroma_me=1 / trellis=2 / 8x8dct=0 / cqm=0 / deadzone=21,11 / fast_pskip=0 / chroma_qp_offset=-2 / threads=13 / lookahead_threads=2 / sliced_threads=0 / nr=0 / decimate=0 / interlaced=0 / bluray_compat=0 / constrained_intra=0 / fgo=0 / bframes=2 / b_pyramid=1 / b_adapt=2 / b_bias=0 / direct=3 / weightb=1 / open_gop=0 / weightp=2 / keyint=250 / keyint_min=25 / scenecut=40 / intra_refresh=0 / rc_lookahead=60 / rc=2pass / mbtree=1 / bitrate=2100 / ratetol=1.0 / qcomp=0.60 / qpmin=0:0:0 / qpmax=69:69:69 / qpstep=4 / cplxblur=20.0 / qblur=0.5 / vbv_maxrate=10000 / vbv_bufsize=10000 / nal_hrd=none / filler=0 / ip_ratio=1.40 / aq=3:0.90 / aq-sensitivity=10.00 / aq-factor=1.00:1.00:1.00 / aq2=1:0.90 / aq2-sensitivity=15.00 / aq2-factor=1.00:1.00:1.00 / aq3=3:[0.50:0.50]:[0.50:0.50]:[0.50:0.50]:[0.50:0.50] / aq3-sensitivity=10.00 / aq3-factor=[1.00:1.00]:[1.00:1.00]:[1.00:1.00] / aq3-boundary=192:64:24
Encoded date                             : UTC 2016-12-17 10:15:36
Tagged date                              : UTC 2016-12-17 10:22:31
Color range                              : Limited
Color primaries                          : BT.709
Transfer characteristics                 : BT.709
Matrix coefficients                      : BT.709
Menus                                    : 3

Audio
ID                                       : 2
Format                                   : AAC
Format/Info                              : Advanced Audio Codec
Format profile                           : LC
Codec ID                                 : 40
Duration                                 : 1 h 40 min
Source duration                          : 1 h 40 min
Bit rate mode                            : Variable
Bit rate                                 : 128 kb/s
Maximum bit rate                         : 132 kb/s
Channel(s)                               : 2 channels
Channel positions                        : Front: L R
Sampling rate                            : 48.0 kHz
Frame rate                               : 46.875 FPS (1024 spf)
Compression mode                         : Lossy
Stream size                              : 91.6 MiB (6%)
Source stream size                       : 91.6 MiB (6%)
Language                                 : Russian
Default                                  : Yes
Alternate group                          : 1
Encoded date                             : UTC 2016-12-17 10:15:36
Tagged date                              : UTC 2016-12-17 10:22:31

Menu
ID                                       : 3
Codec ID                                 : text
Duration                                 : 1 h 40 min
Language                                 : English
Encoded date                             : UTC 2016-12-17 10:22:31
Tagged date                              : UTC 2016-12-17 10:22:31
Menu For                                 : 1
00:00:00.000                             : Глава 1
00:06:30.920                             : Глава 2
00:12:48.680                             : Глава 3
00:20:23.840                             : Глава 4
00:29:36.280                             : Глава 5
00:36:51.160                             : Глава 6
00:45:16.000                             : Глава 7
00:52:38.080                             : Глава 8
01:01:06.240                             : Глава 9
01:09:29.600                             : Глава 10
01:17:48.280                             : Глава 11
01:25:18.840                             : Глава 12
Bit rate mode                            : VBR


Скриншоты:



Время раздачи: 24/7 (круглосуточно) (до появления первых 3-5 скачавших)
 
Не забывайте говорить Спасибо. Не уходите с раздачи!   
Торрент: Зарегистрирован [17 дек 2016, 15:32] Для скачивания .torrent
необходима регистрация
Или скачать с помощью
MediaGet
Статус:
Проверен
 
.torrent скачан: 0 раз
Хэш: 6dc795c373f3bb9f5e7343d20bb3a224fff838a2
Размер: 1.56 ГБ (1 675 725 380 байт)
Стать Автором раздачи
 
 
Раздал: 100 ГБ
Скачал: 0 байт
Ратио: Seed.
Сообщения: 94068
Зарегистрирован: 09 апр 2015, 22:31


  • Похожие торренты
    Ответы
    Просмотры
    Последнее сообщение

Вернуться в Видео для мобильных устройств

Ресурс не предоставляет электронные версии произведений, а занимается лишь коллекционированием и каталогизацией ссылок, присылаемых и публикуемых на форуме нашими читателями. Если вы являетесь правообладателем какого-либо представленного материала и не желаете чтобы ссылка на него находилась в нашем каталоге, свяжитесь с нами и мы незамедлительно удалим её. Файлы для обмена на трекере предоставлены пользователями сайта, и администрация не несёт ответственности за их содержание. Просьба не заливать файлы, защищенные авторскими правами, а также файлы нелегального содержания!
cron