Великолепная семерка / The Magnificent Seven (2016) BDRip [H.264] (Vengeance Mode) [MP4|1280x536]

 
 Статистика раздачи 
Размер: 6.53 ГБ   |  Зарегистрирован: 16 дек 2016, 21:20   |   .torrent скачан: 0 раз
Сидеров: 1  [ 0 байт/сек ]     Личеров: 0  [ 0 байт/сек ]  
  

Великолепная семерка / The Magnificent Seven (2016) BDRip [H.264] (Vengeance Mode) [MP4|1280x536]

Сообщение explosiveone » 16 дек 2016, 21:20

Великолепная семерка / The Magnificent Seven (2016) BDRip (Vengeance Mode)

«Justice has a number»

Производство: США / Metro-Goldwyn-Mayer (MGM), Columbia Pictures, LStar Capital
Жанр: Боевик, Вестерн, Приключения

Режиссер: Антуан Фукуа
Актеры: Дензел Вашингтон, Крис Пратт, Итан Хоук, Винсент Д Онофрио, Ли Бён-хон, Мануэль Рульфо, Мартин Сенсмейер, Хейли Беннетт, Питер Сарсгаард, Люк Граймс, Мэтт Бомер, Кэм Жиганде

Описание:
Семеро отважных искателей приключений встают на защиту жителей маленького городка, угнетаемого бандой грабителей.


Возраст: 16+ (зрителям, достигшим 16 лет)
Рейтинг MPAA: PG-13 (детям до 13 лет просмотр нежелателен)

Релиз от: NNMClub
Продолжительность: 02:53:08
Качество видео: BDRip
Перевод: Дублированный - (BD CEE)
Вид субтитров: Вшитые отключаемые
Язык субтитров: Русский, Английский

Видео: AVC/H.264 (Main@L3.1), 1280x536 (2.40:1), 4500 Кбит/сек
Аудио #1: AAC, 2 канала, 128 Кбит/сек - русский (дублированный)
Аудио #2: AC3, 5.1 канал, 384 Кбит/сек - русский (дублированный)
Аудио #3: AC3, 5.1 канал, 384 Кбит/сек - английский
Код:
General
Complete name                            : C:\DGI\The.Magnificent.Seven.2016.Vengeance.Mode.720p.BDRip.h264.NNMclub.mp4
Format                                   : MPEG-4
Format profile                           : Base Media / Version 2
Codec ID                                 : mp42 (mp42/isom)
File size                                : 6.53 GiB
Duration                                 : 2 h 53 min
Overall bit rate mode                    : Variable
Overall bit rate                         : 5 403 kb/s
Movie name                               : The Magnificent Seven (2016)
Performer                                : Antoine Fuqua
Director                                 : Antoine Fuqua
Actor                                    : Haley Bennett / Vincent D'Onofrio / Ethan Hawke / Chris Pratt / Peter Sarsgaard / Denzel Washington / Manuel Garcia-Rulfo / Luke Grimes / Byung-Hun Lee / Martin Sensmeier
Screenplay by                            : John Lee Hancock / Nic Pizzolatto / Richard Wenk
Producer                                 : Roger Birnbaum / Todd Black
Genre                                    : Western
ContentType                              : Short Film
Description                              : Director Antoine Fuqua brings his modern vision to a classic story in Metro-Goldwyn-Mayer Pictures’ and Columbia Pictures’ The Magnificent Seven.  With the town of Rose Creek under the deadly control of industrialist Bartholomew Bogue (Peter Sarsgaard), the desperate townspeople, led by Emma Cullen (Haley Bennett), employ protection from seven outlaws, bounty hunters, gamblers and hired guns – Sam Chisolm (Denzel Washington), Josh Farraday (Chris Pratt), Goodnight Robicheaux (Ethan Hawke), Jack Horne (Vincent D’Onofrio), Billy Rocks (Byung-Hun Lee), Vasquez (Manuel Garcia-Rulfo), and Red Harvest (Martin Sensmeier).  As they prepare the town for the violent showdown that they know is coming, these seven mercenaries find themselves fighting for more than money.
Recorded date                            : 2016-09-23
Encoded date                             : UTC 2016-12-16 16:43:02
Tagged date                              : UTC 2016-12-16 17:05:41
Copyright                                : © 2016 Metro-Goldwyn-Mayer Pictures Inc. and Columbia Pictures Industries, Inc. THE MAGNIFICENT SEVEN is a trademark of Metro-Goldwyn-Mayer Studios Inc
Cover                                    : Yes
LongDescription                          : Director Antoine Fuqua brings his modern vision to a classic story in Metro-Goldwyn-Mayer Pictures’ and Columbia Pictures’ The Magnificent Seven.  With the town of Rose Creek under the deadly control of industrialist Bartholomew Bogue (Peter Sarsgaard), the desperate townspeople, led by Emma Cullen (Haley Bennett), employ protection from seven outlaws, bounty hunters, gamblers and hired guns – Sam Chisolm (Denzel Washington), Josh Farraday (Chris Pratt), Goodnight Robicheaux (Ethan Hawke), Jack Horne (Vincent D’Onofrio), Billy Rocks (Byung-Hun Lee), Vasquez (Manuel Garcia-Rulfo), and Red Harvest (Martin Sensmeier).  As they prepare the town for the violent showdown that they know is coming, these seven mercenaries find themselves fighting for more than money.
HDVideo                                  : Yes
AppleStoreCountry                        : United States
AppleStoreCatalogID                      : 1148182029
ContentRating                            : mpaa|PG-13|300|

Video
ID                                       : 1
Format                                   : AVC
Format/Info                              : Advanced Video Codec
Format profile                           :
Format settings, CABAC                   : No
Format settings, ReFrames                : 3 frames
Codec ID                                 : avc1
Codec ID/Info                            : Advanced Video Coding
Duration                                 : 2 h 53 min
Bit rate                                 : 4 500 kb/s
Width                                    : 1 280 pixels
Height                                   : 536 pixels
Display aspect ratio                     : 2.40:1
Frame rate mode                          : Variable
Frame rate                               : 23.976 (24000/1001) FPS
Minimum frame rate                       : 23.810 FPS
Maximum frame rate                       : 24.390 FPS
Color space                              : YUV
Chroma subsampling                       : 4:2:0
Bit depth                                : 8 bits
Scan type                                : Progressive
Bits/(Pixel*Frame)                       : 0.274
Stream size                              : 5.44 GiB (83%)
Writing library                          : x264 core 148 r2744+55 950084e t_mod_Custom [8-bit@all X86_64]
Encoding settings                        : cabac=0 / ref=3 / deblock=1:-3:-3 / analyse=0x1:0x131 / me=umh / subme=7 / psy=1 / fade_compensate=0.00 / psy_rd=1.00:0.20 / mixed_ref=1 / me_range=32 / chroma_me=1 / trellis=1 / 8x8dct=0 / cqm=0 / deadzone=21,11 / fast_pskip=1 / chroma_qp_offset=-3 / threads=12 / lookahead_threads=2 / sliced_threads=0 / nr=0 / decimate=1 / interlaced=0 / bluray_compat=0 / constrained_intra=0 / fgo=0 / bframes=3 / b_pyramid=0 / b_adapt=2 / b_bias=0 / direct=3 / weightb=1 / open_gop=0 / weightp=2 / keyint=240 / keyint_min=23 / scenecut=40 / intra_refresh=0 / rc_lookahead=60 / rc=2pass / mbtree=1 / bitrate=4500 / ratetol=1.0 / qcomp=0.60 / qpmin=0:0:0 / qpmax=69:69:69 / qpstep=4 / cplxblur=20.0 / qblur=0.5 / vbv_maxrate=14000 / vbv_bufsize=14000 / nal_hrd=none / filler=0 / ip_ratio=1.40 / aq=1:0.90 / aq-sensitivity=10.00 / aq-factor=1.00:1.00:1.00 / aq2=0 / aq3=0
Encoded date                             : UTC 2016-12-16 16:43:02
Tagged date                              : UTC 2016-12-16 17:05:40
Color range                              : Limited
Color primaries                          : BT.709
Transfer characteristics                 : BT.709
Matrix coefficients                      : BT.709
Menus                                    : 7

Audio #1
ID                                       : 2
Format                                   : AAC
Format/Info                              : Advanced Audio Codec
Format profile                           : LC
Codec ID                                 : 40
Duration                                 : 2 h 53 min
Source duration                          : 2 h 53 min
Bit rate mode                            : Variable
Bit rate                                 : 128 kb/s
Maximum bit rate                         : 133 kb/s
Channel(s)                               : 2 channels
Channel positions                        : Front: L R
Sampling rate                            : 48.0 kHz
Frame rate                               : 46.875 FPS (1024 spf)
Compression mode                         : Lossy
Stream size                              : 159 MiB (2%)
Source stream size                       : 159 MiB (2%)
Language                                 : Russian
Default                                  : Yes
Alternate group                          : 1
Encoded date                             : UTC 2016-12-16 16:43:02
Tagged date                              : UTC 2016-12-16 17:05:40

Audio #2
ID                                       : 3
Format                                   : AC-3
Format/Info                              : Audio Coding 3
Mode extension                           : CM (complete main)
Format settings, Endianness              : Big
Codec ID                                 : ac-3
Duration                                 : 2 h 53 min
Bit rate mode                            : Constant
Bit rate                                 : 384 kb/s
Channel(s)                               : 6 channels
Channel positions                        : Front: L C R, Side: L R, LFE
Sampling rate                            : 48.0 kHz
Frame rate                               : 31.250 FPS (1536 spf)
Bit depth                                : 16 bits
Compression mode                         : Lossy
Stream size                              : 476 MiB (7%)
Language                                 : Russian
Default                                  : No
Alternate group                          : 1
Encoded date                             : UTC 2016-12-16 16:43:02
Tagged date                              : UTC 2016-12-16 17:05:40

Audio #3
ID                                       : 4
Format                                   : AC-3
Format/Info                              : Audio Coding 3
Mode extension                           : CM (complete main)
Format settings, Endianness              : Big
Codec ID                                 : ac-3
Duration                                 : 2 h 53 min
Bit rate mode                            : Constant
Bit rate                                 : 384 kb/s
Channel(s)                               : 6 channels
Channel positions                        : Front: L C R, Side: L R, LFE
Sampling rate                            : 48.0 kHz
Frame rate                               : 31.250 FPS (1536 spf)
Bit depth                                : 16 bits
Compression mode                         : Lossy
Stream size                              : 476 MiB (7%)
Language                                 : English
Default                                  : No
Alternate group                          : 1
Encoded date                             : UTC 2016-12-16 16:43:02
Tagged date                              : UTC 2016-12-16 17:05:40

Text #1
ID                                       : 5
Format                                   : Timed Text
Muxing mode                              : sbtl
Codec ID                                 : tx3g
Duration                                 : 2 h 48 min
Bit rate mode                            : Variable
Bit rate                                 : 72 b/s
Stream size                              : 88.6 KiB (0%)
Language                                 : Russian
Default                                  : Yes
Forced                                   : No
Alternate group                          : 2
Encoded date                             : UTC 2016-12-16 16:43:02
Tagged date                              : UTC 2016-12-16 17:05:40

Text #2
ID                                       : 6
Format                                   : Timed Text
Muxing mode                              : sbtl
Codec ID                                 : tx3g
Duration                                 : 2 h 48 min
Bit rate mode                            : Variable
Bit rate                                 : 63 b/s
Stream size                              : 77.6 KiB (0%)
Language                                 : English
Default                                  : No
Forced                                   : No
Alternate group                          : 2
Encoded date                             : UTC 2016-12-16 16:43:02
Tagged date                              : UTC 2016-12-16 17:05:41

Menu
ID                                       : 7
Codec ID                                 : text
Duration                                 : 2 h 53 min
Language                                 : English
Encoded date                             : UTC 2016-12-16 17:05:41
Tagged date                              : UTC 2016-12-16 17:05:41
Bit rate mode                            : CBR
Menu For                                 : 1
00:00:00.000                             : 00:00:00.000
00:01:23.875                             : 00:01:23.875
00:05:01.551                             : 00:05:01.551
00:15:36.727                             : 00:15:36.727
00:18:05.084                             : 00:18:05.084
00:19:38.761                             : 00:19:38.761
00:20:27.268                             : 00:20:27.268
00:20:49.415                             : 00:20:49.415
00:21:44.428                             : 00:21:44.428
00:23:55.350                             : 00:23:55.350
00:25:17.057                             : 00:25:17.057
00:30:47.512                             : 00:30:47.512
00:33:23.460                             : 00:33:23.460
00:40:45.193                             : 00:40:45.193
00:42:33.301                             : 00:42:33.301
00:45:29.643                             : 00:45:29.643
00:47:03.404                             : 00:47:03.404
00:50:17.723                             : 00:50:17.723
00:51:36.677                             : 00:51:36.677
00:54:53.498                             : 00:54:53.498
00:55:36.792                             : 00:55:36.792
01:00:04.392                             : 01:00:04.392
01:01:16.131                             : 01:01:16.131
01:08:17.468                             : 01:08:17.468
01:09:28.748                             : 01:09:28.748
01:11:32.788                             : 01:11:32.788
01:14:37.264                             : 01:14:37.264
01:29:24.484                             : 01:29:24.484
01:31:31.986                             : 01:31:31.986
01:44:47.072                             : 01:44:47.072
01:46:38.766                             : 01:46:38.767
02:02:34.222                             : 02:02:34.222
02:06:15.985                             : 02:06:15.985
02:16:05.282                             : 02:16:05.282
02:17:04.800                             : 02:17:04.800
02:31:47.014                             : 02:31:47.014
02:32:45.072                             : 02:32:45.072
02:39:31.228                             : 02:39:31.228
02:47:31.666                             : 02:47:31.666


Скриншоты:



Время раздачи: 24/7 (круглосуточно) (до появления первых 3-5 скачавших)
 
Не забывайте говорить Спасибо. Не уходите с раздачи!   
Торрент: Зарегистрирован [16 дек 2016, 21:20] Для скачивания .torrent
необходима регистрация
Или скачать с помощью
MediaGet
Статус:
Проверен
 
.torrent скачан: 0 раз
Хэш: 0f03efb89c9670c9f43fc06eddb4aa485c7522a5
Размер: 6.53 ГБ (7 015 953 329 байт)
Стать Автором раздачи
 
 
Раздал: 100 ГБ
Скачал: 0 байт
Ратио: Seed.
Сообщения: 94015
Зарегистрирован: 09 апр 2015, 22:31


  • Похожие торренты
    Ответы
    Просмотры
    Последнее сообщение

Вернуться в Видео для мобильных устройств

Ресурс не предоставляет электронные версии произведений, а занимается лишь коллекционированием и каталогизацией ссылок, присылаемых и публикуемых на форуме нашими читателями. Если вы являетесь правообладателем какого-либо представленного материала и не желаете чтобы ссылка на него находилась в нашем каталоге, свяжитесь с нами и мы незамедлительно удалим её. Файлы для обмена на трекере предоставлены пользователями сайта, и администрация не несёт ответственности за их содержание. Просьба не заливать файлы, защищенные авторскими правами, а также файлы нелегального содержания!
cron