Гении и злодеи 2 (95 выпускoв) (Юлия Маврина) [2001-2016, Документальный цикл, DVB]

 
 Статистика раздачи 
Размер: 85.17 ГБ   |  Зарегистрирован: 16 дек 2016, 13:29   |   .torrent скачан: 0 раз
Сидеров: 1  [ 0 байт/сек ]     Личеров: 0  [ 0 байт/сек ]  
  

Гении и злодеи 2 (95 выпускoв) (Юлия Маврина) [2001-2016, Документальный цикл, DVB]

Сообщение aLaVodka » 16 дек 2016, 13:29

Гении и злодеи 2

Год выпуска: 2001-2016
Страна: Россия, ООО "ЦИВИЛИЗАЦИЯ"
Жанр: Документальный цикл
Продолжительность: 00:25:00
Перевод: Не требуется
Русские субтитры: нет
Рип: dean10,

Режиссер: Юлия Маврина
Текст читают: Дмитрий Полонский, Алексей Борзунов.

Описание:
Кому обязано человечество нынешним своим существованием в третьем тысячелетии? Гениям или злодеям? Чей вклад больше? Чье влияние сильнее? Отчего «магнитное поле» первых так привлекает вторых? Зависть или объективная необходимость? Страшный вопрос: как связаны гениальность и злодейство и насколько допустимо думать, что они дополняют друг друга?

16.12.2016 _ добавил: Берлиоз Гектор, Ребиндер Пётр,
перезаливаем
Алехин Александр
Арсеньев Владимир
Баев Александр
Баженов Василий
Бартини Роберто
Бегичев Никифор
Берлин Ирвинг
Берлиоз Гектор
Блохин Николай
Бове Осип
Брайль Луи
Брокар Генрих
Брусилов Алексей
ван Рейн Рембранд
Верещагин Василий
Винер Норберт
Войнич Этель Лилиан
Выготский Лев
Габер Фриц
Ган Отто
Гемп Ксения
Гиляровский Владимир
Гог Винсент Ван
Гофман Эрнст Теодор Амадей
Грин Александр
Даль Владимир
Даррелл Джеральд
де Кубертен Пьер
Дизель Рудольф
Дойл Артур Конан
Дуров Владимир
Зощенко Михаил
Зубов Валериан
Илизаров Гавриил
Ипатьев Владимир
Кальман Имре
Кибальчич Николай
Киплинг Редьярд
Клычков Сергей
Козырев Николай
Кренкель Эрнст
Кропоткин Пётр
Кшесинская Матильда
Лангбард Иосиф
Лем Станислав
Лоренц Конрад
Лосев Алексей
Люлли Жан-Батист
Люмьер Луи Жан
Малевич Казимир
Манн Томас
Марр Николай
Миклухо-Маклай Николай
Милн Алан
Мицкевич Адам
Нобель Альфред
Обручев Владимир
Огарев Николай
Орбели Иосиф
Понтекорво Бруно
Путилов Николай
Рамо Жан Филипп
Ребиндер Пётр
Рембо Артюр
Рерих Николай
Родари Джанни
Русанов Владимир
Сарнофф Дэвид
Сартр Жан-Поль
Северин Гай
Сенковский Осип
Сеченов Иван
Станиславский Константин
Столетов Александр
Стравинский Игорь
Сулержицкий Леопольд
Твен Марк
Термен Лев
Тулуз-Ломпек Анри
Ушаков Георгий и Урванцев Николай
Уэллс Герберт
Федотов Павел
Флеминг Ян
Хавкин Владимир
Хейердал Тур
Цвет Михаил
Черняховский Иван
Черский Иван
Черчилль Уинстон
Чюрлёнис Микалоюс Константинас
Ширшов Петр
Шлиман Генрих
Эйнем Фердинанд
Энгельгардт Владимир
Юденич Николай
Сэмпл: http://multi-up.com/1102585

качество: DVB
формат: MPEG-PS
Видео: MPEG 2, 720x576 (16:9), 25 fps, 5 323 Kbps, 0.513 bit/pixel
Аудио: Pусский, MP2, 48 kHz, 2 ch, 256 Kbps
General
Complete name : Z:\Гении и злодеи_2-я часть\Алехин Александр.mpg
Format : MPEG-PS
File size : 1.04 GiB
Duration : 26mn 2s
Overall bit rate mode : Variable
Overall bit rate : 5 692 Kbps

Video
ID : 224 (0xE0)
Format : MPEG Video
Format version : Version 2
Format profile : Main@Main
Format settings, BVOP : Yes
Format settings, Matrix : Custom
Format settings, GOP : M=3, N=15
Format settings, picture structure : Frame
Duration : 26mn 2s
Bit rate mode : Variable
Bit rate : 5 323 Kbps
Maximum bit rate : 15.0 Mbps
Width : 720 pixels
Height : 576 pixels
Display aspect ratio : 4:3
Frame rate : 25.000 fps
Standard : PAL
Color space : YUV
Chroma subsampling : 4:2:0
Bit depth : 8 bits
Scan type : Interlaced
Scan order : Top Field First
Compression mode : Lossy
Bits/(Pixel*Frame) : 0.513
Time code of first frame : 00:00:00:00
Time code source : Group of pictures header
GOP, Open/Closed : Open
GOP, Open/Closed of first frame : Closed
Stream size : 992 MiB (94%)

Audio
ID : 192 (0xC0)
Format : MPEG Audio
Format version : Version 1
Format profile : Layer 2
Duration : 26mn 2s
Bit rate mode : Constant
Bit rate : 256 Kbps
Channel(s) : 2 channels
Sampling rate : 48.0 KHz
Compression mode : Lossy
Delay relative to video : 21ms
Stream size : 47.7 MiB (4%)
Как правильно подключиться к раздаче ПОСЛЕ ОБНОВЛЕНИЯ торрента!
Внимание! Раздача ведётся путём добавления новых серий; при каждом добавлении создётся новый торрент. Чтобы начать докачку новой серии, пользователям необходимо сделать следующее:
(1) остановить скачивание,
(2) удалить старый торрент у себя из клиента (старые серии удалять не надо),
(3) скачать новый торрент и запустить его у себя в клиенте вместо старого, при этом указать клиенту путь в старую папку куда и должно происходить скачивание новых серий.
Ваш клиент при этом должен произвести хеширование (проверку) старой папки (если не производит сам - помогите ему сделать это), и будет докачивать только те серии которых у вас
ещё нет. Старые серии при этом не удаляются, а продолжают раздаваться!
 
Не забывайте говорить Спасибо. Не уходите с раздачи!   
Торрент: Зарегистрирован [16 дек 2016, 13:29] Для скачивания .torrent
необходима регистрация
Или скачать с помощью
MediaGet
Статус:
Проверен
 
.torrent скачан: 0 раз
Хэш: bce1038aa0f461aee9238bc7eb8d831c71626592
Размер: 85.17 ГБ (91 453 487 104 байт)
Стать Автором раздачи
 
 
Раздал: 100 ГБ
Скачал: 0 байт
Ратио: Seed.
Сообщения: 187792
Зарегистрирован: 09 апр 2015, 20:00


Вернуться в Биографии. Личности и кумиры

Ресурс не предоставляет электронные версии произведений, а занимается лишь коллекционированием и каталогизацией ссылок, присылаемых и публикуемых на форуме нашими читателями. Если вы являетесь правообладателем какого-либо представленного материала и не желаете чтобы ссылка на него находилась в нашем каталоге, свяжитесь с нами и мы незамедлительно удалим её. Файлы для обмена на трекере предоставлены пользователями сайта, и администрация не несёт ответственности за их содержание. Просьба не заливать файлы, защищенные авторскими правами, а также файлы нелегального содержания!
cron