Интервью Жюля Дассена французскому ТВ / French TV Interview Jules Dassin [1972, интервью, DVDRip] VO (Nastia) + Original Fre

 
 Статистика раздачи 
Размер: 435.96 МБ   |  Зарегистрирован: 16 дек 2016, 11:54   |   .torrent скачан: 0 раз
Сидеров: 1  [ 0 байт/сек ]     Личеров: 0  [ 0 байт/сек ]  
  

Интервью Жюля Дассена французскому ТВ / French TV Interview Jules Dassin [1972, интервью, DVDRip] VO (Nastia) + Original Fre

Сообщение aLaVodka » 16 дек 2016, 11:54

Интервью Жюля Дассена французскому ТВ / French TV Interview Jules Dassin

Год выпуска: 1972
Страна: Франция
Жанр: интервью
Продолжительность: 00:25:25
Перевод: Одноголосый закадровый (Nastia по переводу larisa_k)
Русские субтитры: нет

Оригинальная аудиодорожка: французский

Описание: Это двадцати пяти минутное видео состоит из отрывков интервью режиссера Жюля Дассена, данного им французскому телевидению, в котором он поведал о своей режиссерской работе в США. Жюль Дассен (1911-2008) - знаменитый режиссер, актер. Снимал фильмы в США и Европе, за что его прозвали «Гражданином Мира». За фильм «Мужские разборки» (1955) он удостоен премии Каннского кинофестиваля за лучшую режиссуру. Его второй женой была популярная греческая актриса Мелина Меркури. Отец французского эстрадного певца Джо Дассена.

Дополнительная информация:
Это интервью было в виде бонуса на диске "Ночь и город" - , рип был сделан с этого диска.
Спасибо larisa_k за перевод, спасибо Nastia за озвучивание.

О Жюле Дассене: https://ru.wikipedia.org/wiki/Дассен,_Жюль , http://www.imdb.com/name/nm0202088/?ref_=fn_al_nm_1

Сэмпл: http://sendfile.su/1290723

Качество видео: DVDRip
Формат видео: AVI

Видео: XviD, 608x464 (1.31:1), 23.976 fps, 1999 Kbps
Аудио 1: AC3, 48.0 KHz, 2 ch., 192 Kbps
Аудио 2: AC3, 48.0 KHz, 1 ch., 192 Kbps
Общее
Полное имя : F:\раздачи\Интервью Жюля Дассена (1972).avi
Формат : AVI
Формат/Информация : Audio Video Interleave
Размер файла : 436 Мбайт
Продолжительность : 25 м.
Общий поток : 2397 Кбит/сек
Программа кодирования : VirtualDubMod 1.5.10.3 | www.virtualdub-fr.org || (build 2550/release)
Библиотека кодирования : VirtualDubMod build 2550/release

Видео
Идентификатор : 0
Формат : MPEG-4 Visual
Профиль формата : Advanced Simple@L5
Параметр BVOP формата : 2
Параметр QPel формата : Нет
Параметр GMC формата : Без точки перехода
Параметр матрицы формата : Default (H.263)
Идентификатор кодека : DX50
Идентификатор кодека/Подсказка : DivX 5
Продолжительность : 25 м.
Битрейт : 1999 Кбит/сек
Ширина : 608 пикселей
Высота : 464 пикселя
Соотношение сторон : 4:3
Частота кадров : 23,976 кадра/сек
Цветовое пространство : YUV
Субдискретизация насыщенности : 4:2:0
Битовая глубина : 8 бит
Тип развёртки : Прогрессивная
Метод сжатия : С потерями
Бит/(Пиксели*Кадры) : 0.296
Размер потока : 364 Мбайт (83%)
Библиотека кодирования : XviD 73

Аудио #1
Идентификатор : 1
Формат : AC-3
Формат/Информация : Audio Coding 3
Расширение режима : CM (complete main)
Параметр Endianness формата : Big
Идентификатор кодека : 2000
Продолжительность : 25 м.
Вид битрейта : Постоянный
Битрейт : 192 Кбит/сек
Каналы : 2 канала
Расположение каналов : Front: L R
Частота : 44,1 КГц
Битовая глубина : 16 бит
Метод сжатия : С потерями
Размер потока : 34,9 Мбайт (8%)
Выравнивание : Разделение по промежуткам
Продолжительность промежутка : 42 мс. (1,00 видеокадр)
Время предзагрузки промежутка : 500 мс.

Аудио #2
Идентификатор : 2
Формат : AC-3
Формат/Информация : Audio Coding 3
Расширение режима : CM (complete main)
Параметр Endianness формата : Big
Идентификатор кодека : 2000
Продолжительность : 25 м.
Вид битрейта : Постоянный
Битрейт : 192 Кбит/сек
Каналы : 1 канал
Расположение каналов : Front: C
Частота : 48,0 КГц
Битовая глубина : 16 бит
Метод сжатия : С потерями
Размер потока : 34,9 Мбайт (8%)
Выравнивание : Разделение по промежуткам
Продолжительность промежутка : 42 мс. (1,00 видеокадр)
Время предзагрузки промежутка : 500 мс.
 
Не забывайте говорить Спасибо. Не уходите с раздачи!   
Торрент: Зарегистрирован [16 дек 2016, 11:54] Для скачивания .torrent
необходима регистрация
Или скачать с помощью
MediaGet
Статус:
Проверен
 
.torrent скачан: 0 раз
Хэш: fae44c18133c9c5da295cfc9b5743df81b724162
Размер: 435.96 МБ (457 134 080 байт)
Стать Автором раздачи
 
 
Раздал: 100 ГБ
Скачал: 0 байт
Ратио: Seed.
Сообщения: 187789
Зарегистрирован: 09 апр 2015, 20:00


Вернуться в Внежанровая документалистика

Ресурс не предоставляет электронные версии произведений, а занимается лишь коллекционированием и каталогизацией ссылок, присылаемых и публикуемых на форуме нашими читателями. Если вы являетесь правообладателем какого-либо представленного материала и не желаете чтобы ссылка на него находилась в нашем каталоге, свяжитесь с нами и мы незамедлительно удалим её. Файлы для обмена на трекере предоставлены пользователями сайта, и администрация не несёт ответственности за их содержание. Просьба не заливать файлы, защищенные авторскими правами, а также файлы нелегального содержания!
cron