Исход: Цари и боги / Exodus: Gods and Kings (2014) HDRip [H.264] [MP4|1024x428]

 
 Статистика раздачи 
Размер: 2.83 ГБ   |  Зарегистрирован: 16 дек 2016, 01:33   |   .torrent скачан: 0 раз
Сидеров: 1  [ 0 байт/сек ]     Личеров: 0  [ 0 байт/сек ]  
  

Исход: Цари и боги / Exodus: Gods and Kings (2014) HDRip [H.264] [MP4|1024x428]

Сообщение explosiveone » 16 дек 2016, 01:33

Исход: Цари и боги / Exodus: Gods and Kings (2014) HDRip

«Он бросил вызов империи и изменил мир»

Производство: Великобритания, США, Испания / Chernin Entertainment, Scott Free Productions, Babieka
Жанр: Боевик, Драма, Приключения

Режиссер: Ридли Скотт
Актеры: Кристиан Бэйл, Джоэл Эдгертон, Джон Туртурро, Аарон Пол, Бен Мендельсон, Мария Вальверде, Сигурни Уивер, Бен Кингсли, Хиам Аббасс, Исаак Эндрюс

Описание:
Ветхозаветная история о великом пророке Моисее и освобождении еврейского народа из египетского плена. Моисей появился на свет в те времена, когда фараон приказал убивать всех новорожденных мальчиков еврейского происхождения. Чтобы спасти его, мать положила малыша в корзину из тростника и отправила вниз по Нилу.
Ребенка нашла дочь фараона, которая усыновила его и растила рядом с Рамсесом — будущим фараоном. Много лет спустя, став мужчиной, Моисей бежит из Египта, а затем возвращается туда по велению Господа, чтобы избавить свой народ от оков рабства…


Возраст: 12+ (зрителям, достигшим 12 лет)
Рейтинг MPAA: PG-13 (детям до 13 лет просмотр нежелателен)

Релиз от: NNMClub
Продолжительность: 02:30:20
Качество видео: HDRip
Перевод: Дублированный, Одноголосый закадровый - (Д.Есарев)
Вид субтитров: Вшитые отключаемые
Язык субтитров: Русский, Английский

Видео: AVC/H.264 (Main@L3.1), 1024x428(2.40:1), 2300 Кбит/сек
Аудио #1: AAC, 2 канала, 128 Кбит/сек - русский (дублированный)
Аудио #2: AAC, 2 канала, 128 Кбит/сек - русский ()
одноголосый закадровый)
Аудио #3: AAC, 2 канала, 128 Кбит/сек - английский
Код:
General
Complete name                            : C:\CREATE\264mod1\out\Exodus.Gods.and.Kings.2014.576p.HDRip.AAC.h264.NNMclub.mp4
Format                                   : MPEG-4
Format profile                           : Base Media / Version 2
Codec ID                                 : mp42 (mp42/isom)
File size                                : 2.83 GiB
Duration                                 : 2 h 30 min
Overall bit rate mode                    : Variable
Overall bit rate                         : 2 692 kb/s
Movie name                               : Exodus: Gods and Kings
Performer                                : Ridley Scott
Director                                 : Ridley Scott
Actor                                    : Christian Bale / Joel Edgerton / John Turturro / Aaron Paul / Sigourney Weaver / Sir Ben Kingsley / Ben Mendelsohn
Genre                                    : Action & Adventure
ContentType                              : Short Film
Description                              : From acclaimed director Ridley Scott comes the epic tale of one man's daring courage to take on the
Recorded date                            : 2014-12-12
Encoded date                             : UTC 2016-12-14 15:07:57
Tagged date                              : UTC 2016-12-14 15:44:19
Copyright                                : © 2014 Twentieth Century Fox Film Corporation
Cover                                    : Yes
LongDescription                          : From acclaimed director Ridley Scott (Gladiator, Prometheus) comes Exodus: Gods and Kings, the epic tale of one man’s daring courage to take on an empire. Using state-of-the-art visual effects, this spectacular adventure brings new life to the story of Moses (Christian Bale) as he defies the Pharaoh Ramses (Joel Edgerton), setting 400,000 slaves on a monumental journey of escape from Egypt.
AppleStoreCountry                        : United States
AppleStoreCatalogID                      : 940901911
ContentRating                            : mpaa|PG-13|300|

Video
ID                                       : 1
Format                                   : AVC
Format/Info                              : Advanced Video Codec
Format profile                           :
Format settings, CABAC                   : Yes
Format settings, ReFrames                : 3 frames
Codec ID                                 : avc1
Codec ID/Info                            : Advanced Video Coding
Duration                                 : 2 h 30 min
Bit rate                                 : 2 300 kb/s
Width                                    : 1 024 pixels
Height                                   : 428 pixels
Display aspect ratio                     : 2.40:1
Frame rate mode                          : Variable
Frame rate                               : 23.976 (24000/1001) FPS
Minimum frame rate                       : 23.810 FPS
Maximum frame rate                       : 24.390 FPS
Color space                              : YUV
Chroma subsampling                       : 4:2:0
Bit depth                                : 8 bits
Scan type                                : Progressive
Bits/(Pixel*Frame)                       : 0.219
Stream size                              : 2.41 GiB (85%)
Writing library                          : x264 core 148 r2744+55 950084e t_mod_Custom [8-bit@all X86_64]
Encoding settings                        : cabac=1 / ref=3 / deblock=1:-3:-3 / analyse=0x1:0x111 / me=umh / subme=7 / psy=1 / fade_compensate=0.00 / psy_rd=1.00:0.20 / mixed_ref=1 / me_range=32 / chroma_me=1 / trellis=2 / 8x8dct=0 / cqm=0 / deadzone=21,11 / fast_pskip=0 / chroma_qp_offset=-3 / threads=12 / lookahead_threads=2 / sliced_threads=0 / nr=0 / decimate=0 / interlaced=0 / bluray_compat=0 / constrained_intra=0 / fgo=0 / bframes=3 / b_pyramid=1 / b_adapt=2 / b_bias=0 / direct=3 / weightb=1 / open_gop=0 / weightp=2 / keyint=240 / keyint_min=23 / scenecut=40 / intra_refresh=0 / rc_lookahead=50 / rc=2pass / mbtree=1 / bitrate=2300 / ratetol=1.0 / qcomp=0.65 / qpmin=0:0:0 / qpmax=69:69:69 / qpstep=4 / cplxblur=20.0 / qblur=0.5 / vbv_maxrate=10000 / vbv_bufsize=10000 / nal_hrd=none / filler=0 / ip_ratio=1.40 / aq=3:0.90 / aq-sensitivity=10.00 / aq-factor=1.00:1.00:1.00 / aq2=1:0.90 / aq2-sensitivity=15.00 / aq2-factor=1.00:1.00:1.00 / aq3=4:[0.50:0.50]:[0.50:0.50]:[0.50:0.50]:[0.50:0.50] / aq3-sensitivity=10.00 / aq3-factor=[1.00:1.00]:[1.00:1.00]:[1.00:1.00] / aq3-boundary=192:64:24
Encoded date                             : UTC 2016-12-14 15:07:57
Tagged date                              : UTC 2016-12-14 15:27:28
Color range                              : Limited
Color primaries                          : BT.709
Transfer characteristics                 : BT.709
Matrix coefficients                      : BT.709
Menus                                    : 8

Audio #1
ID                                       : 2
Format                                   : AAC
Format/Info                              : Advanced Audio Codec
Format profile                           : LC
Codec ID                                 : 40
Duration                                 : 2 h 30 min
Source duration                          : 2 h 30 min
Bit rate mode                            : Variable
Bit rate                                 : 128 kb/s
Maximum bit rate                         : 132 kb/s
Channel(s)                               : 2 channels
Channel positions                        : Front: L R
Sampling rate                            : 48.0 kHz
Frame rate                               : 46.875 FPS (1024 spf)
Compression mode                         : Lossy
Stream size                              : 138 MiB (5%)
Source stream size                       : 138 MiB (5%)
Language                                 : Russian
Default                                  : Yes
Alternate group                          : 1
Encoded date                             : UTC 2016-12-14 15:07:57
Tagged date                              : UTC 2016-12-14 15:27:28

Audio #2
ID                                       : 3
Format                                   : AAC
Format/Info                              : Advanced Audio Codec
Format profile                           : LC
Codec ID                                 : 40
Duration                                 : 2 h 30 min
Source duration                          : 2 h 30 min
Bit rate mode                            : Variable
Bit rate                                 : 128 kb/s
Maximum bit rate                         : 132 kb/s
Channel(s)                               : 2 channels
Channel positions                        : Front: L R
Sampling rate                            : 48.0 kHz
Frame rate                               : 46.875 FPS (1024 spf)
Compression mode                         : Lossy
Stream size                              : 138 MiB (5%)
Source stream size                       : 138 MiB (5%)
Language                                 : Russian
Default                                  : No
Alternate group                          : 1
Encoded date                             : UTC 2016-12-14 15:07:57
Tagged date                              : UTC 2016-12-14 15:27:28

Audio #3
ID                                       : 4
Format                                   : AAC
Format/Info                              : Advanced Audio Codec
Format profile                           : LC
Codec ID                                 : 40
Duration                                 : 2 h 30 min
Source duration                          : 2 h 30 min
Bit rate mode                            : Variable
Bit rate                                 : 128 kb/s
Maximum bit rate                         : 132 kb/s
Channel(s)                               : 2 channels
Channel positions                        : Front: L R
Sampling rate                            : 48.0 kHz
Frame rate                               : 46.875 FPS (1024 spf)
Compression mode                         : Lossy
Stream size                              : 138 MiB (5%)
Source stream size                       : 138 MiB (5%)
Language                                 : English
Default                                  : No
Alternate group                          : 1
Encoded date                             : UTC 2016-12-14 15:07:57
Tagged date                              : UTC 2016-12-14 15:27:28

Text #1
ID                                       : 5
Format                                   : Timed Text
Muxing mode                              : sbtl
Codec ID                                 : tx3g
Duration                                 : 2 h 30 min
Bit rate mode                            : Variable
Bit rate                                 : 1 b/s
Stream size                              : 709 Bytes (0%)
Language                                 : Russian
Default                                  : Yes
Forced                                   : No
Alternate group                          : 2
Encoded date                             : UTC 2016-12-14 15:07:57
Tagged date                              : UTC 2016-12-14 15:27:28

Text #2
ID                                       : 6
Format                                   : Timed Text
Muxing mode                              : sbtl
Codec ID                                 : tx3g
Duration                                 : 2 h 30 min
Bit rate mode                            : Variable
Bit rate                                 : 50 b/s
Stream size                              : 55.0 KiB (0%)
Language                                 : Russian
Default                                  : No
Forced                                   : No
Alternate group                          : 2
Encoded date                             : UTC 2016-12-14 15:07:57
Tagged date                              : UTC 2016-12-14 15:27:28

Text #3
ID                                       : 7
Format                                   : Timed Text
Muxing mode                              : sbtl
Codec ID                                 : tx3g
Duration                                 : 2 h 21 min
Bit rate mode                            : Variable
Bit rate                                 : 34 b/s
Stream size                              : 35.0 KiB (0%)
Language                                 : English
Default                                  : No
Forced                                   : No
Alternate group                          : 2
Encoded date                             : UTC 2016-12-14 15:07:57
Tagged date                              : UTC 2016-12-14 15:27:28

Menu
ID                                       : 8
Codec ID                                 : text
Duration                                 : 2 h 30 min
Language                                 : English
Encoded date                             : UTC 2016-12-14 15:27:28
Tagged date                              : UTC 2016-12-14 15:27:28
Bit rate mode                            : CBR
Menu For                                 : 1
00:00:00.000                             : 00:00:00.000
00:03:55.402                             : 00:03:55.402
00:06:51.995                             : 00:06:51.995
00:11:47.707                             : 00:11:47.707
00:14:29.452                             : 00:14:29.452
00:18:37.658                             : 00:18:37.658
00:22:15.834                             : 00:22:15.834
00:26:51.151                             : 00:26:51.151
00:30:31.288                             : 00:30:31.288
00:36:41.366                             : 00:36:41.366
00:40:48.321                             : 00:40:48.321
00:44:49.937                             : 00:44:49.937
00:48:47.800                             : 00:48:47.800
00:51:16.448                             : 00:51:16.448
00:54:22.217                             : 00:54:22.217
00:57:32.658                             : 00:57:32.658
01:00:31.169                             : 01:00:31.169
01:04:41.544                             : 01:04:41.544
01:06:49.047                             : 01:06:49.047
01:11:01.883                             : 01:11:01.883
01:16:53.692                             : 01:16:53.692
01:21:18.040                             : 01:21:18.040
01:24:30.356                             : 01:24:30.357
01:28:08.533                             : 01:28:08.533
01:30:54.157                             : 01:30:54.157
01:34:14.566                             : 01:34:14.566
01:37:20.543                             : 01:37:20.543
01:39:20.204                             : 01:39:20.204
01:42:40.321                             : 01:42:40.321
01:46:50.070                             : 01:46:50.070
01:49:02.661                             : 01:49:02.661
01:52:18.315                             : 01:52:18.315
01:57:29.876                             : 01:57:29.876
02:00:23.842                             : 02:00:23.842
02:05:41.325                             : 02:05:41.325
02:07:31.269                             : 02:07:31.269
02:13:38.469                             : 02:13:38.469
02:16:21.882                             : 02:16:21.882
02:19:39.997                             : 02:19:39.997
02:23:19.800                             : 02:23:19.800


Скриншоты:



Время раздачи: 24/7 (круглосуточно) (до появления первых 3-5 скачавших)
 
Не забывайте говорить Спасибо. Не уходите с раздачи!   
Торрент: Зарегистрирован [16 дек 2016, 01:33] Для скачивания .torrent
необходима регистрация
Или скачать с помощью
MediaGet
Статус:
Проверен
 
.torrent скачан: 0 раз
Хэш: 315cef2a01c3570f3fb5696800b9da567a2bbd20
Размер: 2.83 ГБ (3 034 789 676 байт)
Стать Автором раздачи
 
 
Раздал: 100 ГБ
Скачал: 0 байт
Ратио: Seed.
Сообщения: 94065
Зарегистрирован: 09 апр 2015, 22:31


  • Похожие торренты
    Ответы
    Просмотры
    Последнее сообщение

Вернуться в Видео для мобильных устройств

Ресурс не предоставляет электронные версии произведений, а занимается лишь коллекционированием и каталогизацией ссылок, присылаемых и публикуемых на форуме нашими читателями. Если вы являетесь правообладателем какого-либо представленного материала и не желаете чтобы ссылка на него находилась в нашем каталоге, свяжитесь с нами и мы незамедлительно удалим её. Файлы для обмена на трекере предоставлены пользователями сайта, и администрация не несёт ответственности за их содержание. Просьба не заливать файлы, защищенные авторскими правами, а также файлы нелегального содержания!
cron