Расплата / The Accountant (2016) WEBRip [H.264] [MP4|1024x428]

 
 Статистика раздачи 
Размер: 2 ГБ   |  Зарегистрирован: 16 дек 2016, 01:29   |   .torrent скачан: 0 раз
Сидеров: 1  [ 0 байт/сек ]     Личеров: 3  [ 0 байт/сек ]  
  

Расплата / The Accountant (2016) WEBRip [H.264] [MP4|1024x428]

Сообщение explosiveone » 16 дек 2016, 01:29

Расплата / The Accountant (2016) WEBRip

«Calculate your choices»

Производство: США / Warner Bros., Electric City Entertainment, RatPac-Dune Entertainment
Жанр: Боевик, Триллер, Драма, Криминал

Режиссер: Гэвин О’Коннор
Актеры: Бен Аффлек, Анна Кендрик, Дж.К. Симмонс, Джон Бернтал, Джеффри Тэмбор, Синтия Аддай-Робинсон, Джон Литгоу, Джин Смарт, Энди Умбергер, Элисон Райт

Описание:
Лента расскажет историю математического гения Кристиана Вульфа, который подрабатывает аудитором для самых опасных преступных организаций. Когда ему «на хвост» садится отдел по борьбе с преступностью Министерства финансов во главе с Рэем Кингом Кристиан решает найти себе законопослушного клиента и проводит аудит в компании по производству новейшей робототехники, где сотрудница финансового отдела обнаружила «нестыковочку» в миллионы долларов. Но стоит Кристиану взяться за счета и выйти на след, как в деле начинают появляться жертвы.


Возраст: 18+ (зрителям, достигшим 18 лет. запрещено для детей)
Рейтинг MPAA: R (лицам до 17 лет обязательно присутствие взрослого)

Релиз от: NNMClub
Продолжительность: 02:08:11
Качество видео: WEBRip
Перевод: Дублированный - (Чистый звук)
Вид субтитров: Вшитые неотключаемые
Язык субтитров: Корейский
Реклама: Присутствуют аудио и текстовые вставки рекламы

Видео: AVC/H.264 (Main@L3.1), 1024x428 (2.40:1), 2100 Кбит/сек
Аудио #1: AAC, 2 канала, 128 Кбит/сек - русский (дублированный)
Код:
General
Complete name                            : C:\DGI\The.Accountant.2016.576p.HDTVRip.AAC.h264.NNMclub.mp4
Format                                   : MPEG-4
Format profile                           : Base Media / Version 2
Codec ID                                 : mp42 (mp42/isom)
File size                                : 2.00 GiB
Duration                                 : 2 h 8 min
Overall bit rate mode                    : Variable
Overall bit rate                         : 2 234 kb/s
Movie name                               : The Accountant (2016)
Performer                                : Gavin O'Connor
Director                                 : Gavin O'Connor
Actor                                    : Ben Affleck / Anna Kendrick / J.K. Simmons / Jon Bernthal / Jeffrey Tambor / John Lithgow
Screenplay by                            : Bill Dubuque
Producer                                 : Mark Williams / Lynette Howell Taylor
Genre                                    : Drama
ContentType                              : Short Film
Description                              : Christian Wolff (Ben Affleck) is a math savant with more affinity for numbers than people. Behind
Recorded date                            : 2016-10-14
Encoded date                             : UTC 2016-12-15 12:41:54
Tagged date                              : UTC 2016-12-15 12:48:20
Copyright                                : © 2016 Warner Bros. Entertainment Inc. and RatPac-Dune Entertainment LLC.
Cover                                    : Yes
LongDescription                          : Christian Wolff (Ben Affleck) is a math savant with more affinity for numbers than people. Behind the cover of a small-town CPA office, he works as a freelance accountant for some of the world’s most dangerous criminal organizations. With the Treasury Department’s Crime Enforcement Division, run by Ray King (J.K. Simmons), starting to close in, Christian takes on a legitimate client: a state-of-the-art robotics company where an accounting clerk (Anna Kendrick) has discovered a discrepancy involving millions of dollars. But as Christian uncooks the books and gets closer to the truth, it is the body count that starts to rise.
AppleStoreCountry                        : United States
AppleStoreCatalogID                      : 1161476603
ContentRating                            : mpaa|R|400|

Video
ID                                       : 1
Format                                   : AVC
Format/Info                              : Advanced Video Codec
Format profile                           :
Format settings, CABAC                   : Yes
Format settings, ReFrames                : 3 frames
Codec ID                                 : avc1
Codec ID/Info                            : Advanced Video Coding
Duration                                 : 2 h 8 min
Bit rate                                 : 2 100 kb/s
Width                                    : 1 024 pixels
Height                                   : 428 pixels
Display aspect ratio                     : 2.40:1
Frame rate mode                          : Variable
Frame rate                               : 29.970 (29970/1000) FPS
Minimum frame rate                       : 29.412 FPS
Maximum frame rate                       : 30.303 FPS
Original frame rate                      : 29.970 (30000/1001) FPS
Color space                              : YUV
Chroma subsampling                       : 4:2:0
Bit depth                                : 8 bits
Scan type                                : Progressive
Bits/(Pixel*Frame)                       : 0.160
Stream size                              : 1.88 GiB (94%)
Writing library                          : x264 core 148 r2744+55 950084e t_mod_Custom [8-bit@all X86_64]
Encoding settings                        : cabac=1 / ref=3 / deblock=1:-3:-3 / analyse=0x1:0x111 / me=umh / subme=7 / psy=1 / fade_compensate=0.00 / psy_rd=1.00:0.20 / mixed_ref=1 / me_range=32 / chroma_me=1 / trellis=2 / 8x8dct=0 / cqm=0 / deadzone=21,11 / fast_pskip=0 / chroma_qp_offset=-3 / threads=12 / lookahead_threads=2 / sliced_threads=0 / nr=0 / decimate=0 / interlaced=0 / bluray_compat=0 / constrained_intra=0 / fgo=0 / bframes=3 / b_pyramid=1 / b_adapt=2 / b_bias=0 / direct=3 / weightb=1 / open_gop=0 / weightp=2 / keyint=300 / keyint_min=29 / scenecut=40 / intra_refresh=0 / rc_lookahead=50 / rc=2pass / mbtree=1 / bitrate=2100 / ratetol=1.0 / qcomp=0.60 / qpmin=0:0:0 / qpmax=69:69:69 / qpstep=4 / cplxblur=20.0 / qblur=0.5 / vbv_maxrate=10000 / vbv_bufsize=10000 / nal_hrd=none / filler=0 / ip_ratio=1.40 / aq=3:1.00 / aq-sensitivity=10.00 / aq-factor=1.00:1.00:1.00 / aq2=1:0.90 / aq2-sensitivity=15.00 / aq2-factor=1.00:1.00:1.00 / aq3=4:[0.50:0.50]:[0.50:0.50]:[0.50:0.50]:[0.50:0.50] / aq3-sensitivity=10.00 / aq3-factor=[1.00:1.00]:[1.00:1.00]:[1.00:1.00] / aq3-boundary=192:64:24
Encoded date                             : UTC 2016-12-15 12:41:54
Tagged date                              : UTC 2016-12-15 12:48:20
Color range                              : Limited
Color primaries                          : BT.709
Transfer characteristics                 : BT.709
Matrix coefficients                      : BT.709

Audio
ID                                       : 2
Format                                   : AAC
Format/Info                              : Advanced Audio Codec
Format profile                           : LC
Codec ID                                 : 40
Duration                                 : 2 h 8 min
Source duration                          : 2 h 8 min
Bit rate mode                            : Variable
Bit rate                                 : 128 kb/s
Maximum bit rate                         : 131 kb/s
Channel(s)                               : 2 channels
Channel positions                        : Front: L R
Sampling rate                            : 48.0 kHz
Frame rate                               : 46.875 FPS (1024 spf)
Compression mode                         : Lossy
Stream size                              : 117 MiB (6%)
Source stream size                       : 117 MiB (6%)
Language                                 : Russian
Default                                  : Yes
Alternate group                          : 1
Encoded date                             : UTC 2016-12-15 12:41:54
Tagged date                              : UTC 2016-12-15 12:48:20


Скриншоты:



Время раздачи: 24/7 (круглосуточно) (до появления первых 3-5 скачавших)
 
Не забывайте говорить Спасибо. Не уходите с раздачи!   
Торрент: Зарегистрирован [16 дек 2016, 01:29] Для скачивания .torrent
необходима регистрация
Или скачать с помощью
MediaGet
Статус:
Проверен
 
.torrent скачан: 0 раз
Хэш: 21b6f48854ed8d3bd559ddf4b6bd1bace141aa71
Размер: 2 ГБ (2 148 057 100 байт)
Стать Автором раздачи
 
 
Раздал: 100 ГБ
Скачал: 0 байт
Ратио: Seed.
Сообщения: 94043
Зарегистрирован: 09 апр 2015, 22:31


  • Похожие торренты
    Ответы
    Просмотры
    Последнее сообщение

Вернуться в Видео для мобильных устройств

Ресурс не предоставляет электронные версии произведений, а занимается лишь коллекционированием и каталогизацией ссылок, присылаемых и публикуемых на форуме нашими читателями. Если вы являетесь правообладателем какого-либо представленного материала и не желаете чтобы ссылка на него находилась в нашем каталоге, свяжитесь с нами и мы незамедлительно удалим её. Файлы для обмена на трекере предоставлены пользователями сайта, и администрация не несёт ответственности за их содержание. Просьба не заливать файлы, защищенные авторскими правами, а также файлы нелегального содержания!
cron