Ментовские войны (2014) HDTVRip [H.264] (сезон 8, серии 1-16 из 16) [MP4|640x360]

 
 Статистика раздачи 
Размер: 2.36 ГБ   |  Зарегистрирован: 15 дек 2016, 13:34   |   .torrent скачан: 0 раз
Сидеров: 1  [ 0 байт/сек ]     Личеров: 0  [ 0 байт/сек ]  
  

Ментовские войны (2014) HDTVRip [H.264] (сезон 8, серии 1-16 из 16) [MP4|640x360]

Сообщение explosiveone » 15 дек 2016, 13:34

Ментовские войны (2014) HDTVRip [H.264] (сезон 8, серии 1-16 из 16) [MP4|640x360]

Производство: Россия / "Форвард-фильм", "Панорама"
Жанр: Детектив, Криминал

Режиссер: Денис Скворцов
Актеры: Александр Устюгов, Дмитрий Быковский-Ромашов, Всеволод Цурило, Олег Гаянов, Андрей Родимов, Марина Денисова, Антон Мошечков, Роберт Студеновский, Александр Ленин, Игорь Сергеев и др...

Описание:
Перевод в районный отдел лишает Романа Шилова многих привычных рычагов контроля над криминальной обстановкой в городе, но также развязывает ему руки. С помощью своих верных друзей - Павла Арнаутова и Евгения Иванова по прозвищу "Джексон" - он продолжает внимательно следить за обстановкой в ГУВД, и случай напомнить о себе предоставляется Роману очень скоро. Расследование махинаций начальника УБЭП Каспаряна приводит Романа к раскрытию целой системы торговли должностями и вымогательства под прикрытием высоких званий. Дубровский, не растерявший и толики своего былого влияния, продолжает насаждать коррупцию в Петербурге, но и Роман не думает ему уступать. Тем более, что в его руках наконец-то появляются сильные козыри против двух своих старых врагов - Ковалёва и Демидова...


Возраст: 16+ (зрителям, достигшим 16 лет)

Продолжительность: ~ 00:45:00 серия
Качество видео: HDTVRip
Перевод: Отсутствует

Видео: AVC/H.264, 640x360 (16:9), ~374 Kbps
Аудио: AAC, 2 ch, 96.0 Kbps, VBR
Код: Выделить всё
Общее
Полное имя                               : D:\Мои фильмы\Mentovskie_vojny_S8_1-16iz16_2015_XviD_HDTVRip.mp4\Mentovskie_vojny_S8_01_2015_HDTVRip.mp4
Формат                                   : MPEG-4
Профиль формата                          : Base Media
Идентификатор кодека                     : isom (isom/avc1/iso6)
Размер файла                             : 151 Мбайт
Продолжительность                        : 44 м. 29 с.
Режим общего битрейта                    : Переменный
Общий поток                              : 474 Кбит/сек
Дата кодирования                         : UTC 2016-12-13 05:38:49
Дата пометки                             : UTC 2016-12-13 05:38:49

Видео
Идентификатор                            : 1
Формат                                   : AVC
Формат/Информация                        : Advanced Video Codec
Профиль формата                          : Main@L3
Параметр CABAC формата                   : Нет
Параметр ReFrames формата                : 4 кадра
Идентификатор кодека                     : avc1
Идентификатор кодека/Информация          : Advanced Video Coding
Продолжительность                        : 44 м. 29 с.
Битрейт                                  : 374 Кбит/сек
Максимальный битрейт                     : 1402 Кбит/сек
Ширина                                   : 640 пикселей
Высота                                   : 360 пикселей
Соотношение сторон                       : 16:9
Режим частоты кадров                     : Постоянный
Частота кадров                           : 25,000 кадров/сек
Цветовое пространство                    : YUV
Субдискретизация насыщенности            : 4:2:0
Битовая глубина                          : 8 бит
Тип развёртки                            : Прогрессивная
Бит/(Пиксели*Кадры)                      : 0.065
Размер потока                            : 119 Мбайт (79%)
Библиотека кодирования                   : x264 core 148 r2638 7599210
Настройки программы                      : cabac=0 / ref=3 / deblock=0:0:0 / analyse=0x1:0x111 / me=hex / subme=5 / psy=1 / psy_rd=1.00:0.00 / mixed_ref=1 / me_range=16 / chroma_me=1 / trellis=0 / 8x8dct=0 / cqm=0 / deadzone=21,11 / fast_pskip=1 / chroma_qp_offset=0 / threads=1 / lookahead_threads=1 / sliced_threads=0 / nr=0 / decimate=1 / interlaced=0 / bluray_compat=0 / constrained_intra=0 / bframes=3 / b_pyramid=2 / b_adapt=1 / b_bias=0 / direct=2 / weightb=0 / open_gop=0 / weightp=0 / keyint=250 / keyint_min=25 / scenecut=40 / intra_refresh=0 / rc=2pass / mbtree=0 / bitrate=374 / ratetol=1.0 / qcomp=0.60 / qpmin=10 / qpmax=51 / qpstep=4 / cplxblur=20.0 / qblur=0.5 / ip_ratio=1.40 / pb_ratio=1.30 / aq=1:1.00
Дата кодирования                         : UTC 2016-12-13 05:38:49
Дата пометки                             : UTC 2016-12-13 05:38:58

Аудио
Идентификатор                            : 2
Формат                                   : AAC
Формат/Информация                        : Advanced Audio Codec
Профиль формата                          : LC
Идентификатор кодека                     : 40
Продолжительность                        : 44 м. 29 с.
Вид битрейта                             : Переменный
Битрейт                                  : 96,0 Кбит/сек
Максимальный битрейт                     : 104 Кбит/сек
Каналы                                   : 2 канала
Расположение каналов                     : Front: L R
Частота                                  : 48,0 КГц
Частота кадров                           : 46,875 кадров/сек (1024 spf)
Метод сжатия                             : С потерями
Размер потока                            : 30,6 Мбайт (20%)
Язык                                     : English
Дата кодирования                         : UTC 2016-12-13 04:41:26
Дата пометки                             : UTC 2016-12-13 05:38:58
Фильм №1:
Игра на чужом поле (1-4 серии)

Несговорчивость и принципиальное отношение к служебному долгу привели к тому, что Романа Шилова перевели в районное отделение полиции в качестве простого оперативника. Начальство обещает ему самостоятельность в работе, а Роман в ответ — не лезть в чужие дела. Шилов тем временем пытается разоблачить преступную сеть в полицейских органах, члены которой через подставные фирмы занимаются «наездами» на бизнесменов и торговлей должностями. Но подобраться к организатору сообщества – начальнику ОБЭП Каспаряну — непросто, поскольку «оборотня в погонах» покрывает влиятельный генерал…

Фильм №2:
Большой брат (1-4 серии)

Обостряется борьба за министерское кресло. Главные претенденты от Петербурга - это Демидов и Ковалев. Оба - "заклятые друзья" Шилова. Все началось с покушения на Демидова, однако тот, кто хотел его устранить, результата не добился, а вот киллера на байке застрелили. Следующим стал Ковалев - к нему средь бела дня пришли двое в масках и ограбили. Причем сначала под пыткой узнали код сейфа, а потом оттуда забрали двадцать миллионов рублей, сто тысяч евро и драгоценности жены. Все это происходило на глазах жены и сына, который от перенесенного стресса начал заикаться. Сам Ковалев попал в больницу, а жену с ребенком отправил на машине в Финляндию. Шилов пытается выяснить, кто же на самом деле "заказал" обоих - Демидова и Ковалева...

Фильм №3:
Китайская ничья (1-4 серии)

"Китайская ничья" - это когда незадолго до окончания шахматной партии ты или твой противник одним движением руки переворачивает доску, и фигуры в беспорядке рассыпаются по полу. Нет ни выигравших, ни проигравших... Из военной части, где когда-то служил Танкист, сбежали двое солдат с машиной оружия. Они убили младшего офицера, сопровождавшего груз. Дезертиры явились к Танкисту с просьбой найти покупателя. Танкист, напуганный прежними событиями, стал осторожнее и предусмотрительнее и начал сотрудничать и с Шиловым, и с Ковалевым. Перед Шиловым и Ковалевым стоят диаметрально противоположные задачи. Если Шилов как можно скорее хочет поймать дезертиров и вернуть оружие в часть, то Ковалеву, наломавшему уже немало дров, нужно совершить подвиг...

Фильм №4:
Последняя война (1-4 серии)

Руководителем убойного отдела Центрального района утверждён Дадиани. В то же время, Шилов не забывает о своём главном враге — Дубровском, и поэтому регулярно навещает в тюрьме Удава, способного многое рассказать о своем бывшем нанимателе. Проверив показания курьера, Роман узнаёт, что тот сам сфабриковал заказ на доставку пиццы по адресу дома Вакулина, но узнать подробности этой афёры лично у Жгутова так и не удаётся. Скрывшись от преследования Шилова на такси Джексона, Жгутов просит подвезти его к неприметному дому, откуда уже не возвращается.

Скриншоты:



Время раздачи: с 07:00 до 23:00 (до появления первых 3-5 скачавших)
 
Не забывайте говорить Спасибо. Не уходите с раздачи!   
Торрент: Зарегистрирован [15 дек 2016, 13:34] Для скачивания .torrent
необходима регистрация
Или скачать с помощью
MediaGet
Статус:
Проверен
 
.torrent скачан: 0 раз
Хэш: e46032c54052884dbd3400026701d82534943f0d
Размер: 2.36 ГБ (2 533 118 367 байт)
Стать Автором раздачи
 
 
Раздал: 100 ГБ
Скачал: 0 байт
Ратио: Seed.
Сообщения: 94043
Зарегистрирован: 09 апр 2015, 22:31


  • Похожие торренты
    Ответы
    Просмотры
    Последнее сообщение

Вернуться в Видео для мобильных устройств

Ресурс не предоставляет электронные версии произведений, а занимается лишь коллекционированием и каталогизацией ссылок, присылаемых и публикуемых на форуме нашими читателями. Если вы являетесь правообладателем какого-либо представленного материала и не желаете чтобы ссылка на него находилась в нашем каталоге, свяжитесь с нами и мы незамедлительно удалим её. Файлы для обмена на трекере предоставлены пользователями сайта, и администрация не несёт ответственности за их содержание. Просьба не заливать файлы, защищенные авторскими правами, а также файлы нелегального содержания!
cron