СашаТаня [03x01-20 из 40] (2016) WEB-DLRip-AVC от ExKinoRay

 
 Статистика раздачи 
Размер: 6.03 ГБ   |  Зарегистрирован: 15 дек 2016, 04:58   |   .torrent скачан: 52 раз
Сидеров: 38  [ 0 байт/сек ]     Личеров: 148  [ 0 байт/сек ]  
  

СашаТаня [03x01-20 из 40] (2016) WEB-DLRip-AVC от ExKinoRay

Сообщение Ressler » 15 дек 2016, 04:58

СашаТаня

Сезон 3, эпизоды с 1 по 20 (из 40)

«Все равно вместе...»

Год выпуска: 2016
Страна: Россия
Производство: «Comedy Club Production»
Жанр: Комедия

Режиссёр: Михаил Старчак
В ролях: Андрей Гайдулян, Виктор Полторацкий, Наталья Ходус, Лариса Баранова, Алексей Гаврилов, Алексей Климушкин, Валентина Рубцова, Виталий Гогунский

Перевод: Не требуется
Субтитры: Нет
Реклама: Отсутствует

Описание: Вот уже 8 лет вся страна следит за жизнью и отношениями Саши и Тани Сергеевых: раньше в «Универе», а теперь в их собственном сериале. Мы наблюдали, как Саша и Таня ютились в общаге, снимали квартиру, а потом купили собственное жилье в ипотеку. Мы видели их первый поцелуй, первое кое-что посерьезнее и даже внимательно смотрели, как Саша терял и возвращал свою мужскую силу. Мы видели, как они родили милого сына Алешку — а теперь воспитывают его и учат плохому. Саша с Таней ловили мышь во время секса, убили хомячка начальника и чуть не разошлись из-за карточки фитнес-клуба — в общем, делали все, что делают нормальные молодые пары. Несмотря ни на что, они не свели друг друга с ума — и продолжают смешить нас.





Качество: WEB-DLRip-AVC
Продолжительность: 20 х ~ 00:24:00

Формат: MKV
Видео кодек: MPEG-4 AVC
Аудио кодек: АС3
Свойства видео: 1024x576 (16:9), 25 fps, MPEG-4 AVC ~1 800 kbps avg, 0.122 bit/pixel
Свойства аудио: 48 KHz, AC3, 2 ch, ~128.00 kbps avg


Общее
Уникальный идентификатор : 198815254247464799088173350872432048897 (0x95926CD6FF97DEA7852D1B1FBC90FB01)
Полное имя : D:SashaTanya.3.WEB-DLRip(AVC).ExKinoRay1.SashaTanya.3.WEB-DLRip(AVC).ExKinoRay.mkv
Формат : Matroska
Версия формата : Version 2
Размер файла : 303 Мбайт
Продолжительность : 21 м.
Общий поток : 1992 Кбит/сек
Дата кодирования : UTC 2016-11-15 01:41:18
Программа кодирования : mkvmerge v7.8.0 ('River Man') 32bit built on Apr 3 2015 12:11:22
Библиотека кодирования : libebml v1.3.1 + libmatroska v1.4.2

Видео
Идентификатор : 1
Формат : AVC
Формат/Информация : Advanced Video Codec
Профиль формата : High@L4.1
Параметр CABAC формата : Да
Параметр ReFrames формата : 10 кадров
Идентификатор кодека : V_MPEG4/ISO/AVC
Продолжительность : 21 м.
Битрейт : 1800 Кбит/сек
Ширина : 1024 пикселя
Высота : 576 пикселей
Соотношение сторон : 16:9
Режим частоты кадров : Постоянный
Частота кадров : 25,000 кадров/сек
Цветовое пространство : YUV
Субдискретизация насыщенности : 4:2:0
Битовая глубина : 8 бит
Тип развёртки : Прогрессивная
Бит/(Пиксели*Кадры) : 0.122
Размер потока : 268 Мбайт (88%)
Библиотека кодирования : x264 core 146 r2538 121396c
Настройки программы : cabac=1 / ref=10 / deblock=1:-3:-3 / analyse=0x3:0x133 / me=umh / subme=10 / psy=1 / psy_rd=1.00:0.03 / mixed_ref=1 / me_range=48 / chroma_me=1 / trellis=2 / 8x8dct=1 / cqm=0 / deadzone=21,11 / fast_pskip=0 / chroma_qp_offset=-3 / threads=6 / lookahead_threads=1 / sliced_threads=0 / nr=0 / decimate=0 / interlaced=0 / bluray_compat=0 / constrained_intra=0 / bframes=10 / b_pyramid=2 / b_adapt=2 / b_bias=0 / direct=3 / weightb=1 / open_gop=0 / weightp=2 / keyint=240 / keyint_min=24 / scenecut=40 / intra_refresh=0 / rc_lookahead=40 / rc=2pass / mbtree=0 / bitrate=1800 / ratetol=1.0 / qcomp=0.60 / qpmin=0 / qpmax=69 / qpstep=4 / cplxblur=20.0 / qblur=0.5 / vbv_maxrate=50000 / vbv_bufsize=62500 / nal_hrd=none / filler=0 / ip_ratio=1.40 / pb_ratio=1.30 / aq=1:1.00
Default : Да
Forced : Нет

Аудио
Идентификатор : 2
Формат : AC-3
Формат/Информация : Audio Coding 3
Расширение режима : CM (complete main)
Параметр Endianness формата : Big
Идентификатор кодека : A_AC3
Продолжительность : 21 м.
Вид битрейта : Постоянный
Битрейт : 192 Кбит/сек
Каналы : 2 канала
Расположение каналов : Front: L R
Частота : 48,0 КГц
Битовая глубина : 16 бит
Метод сжатия : С потерями
Размер потока : 29,2 Мбайт (10%)
Default : Да
Forced : Нет


 
Не забывайте говорить Спасибо. Не уходите с раздачи!   
Торрент: Зарегистрирован [15 дек 2016, 04:58] Для скачивания .torrent
необходима регистрация
Или скачать с помощью
MediaGet
Статус:
Проверен
 
.torrent скачан: 52 раз
Хэш: cef899ab9bc824b79f3276c77c6756e9f7c2649d
Размер: 6.03 ГБ (6 478 679 742 байт)
Стать Автором раздачи
 
 
Раздал: 100 ГБ
Скачал: 0 байт
Ратио: Seed.
Сообщения: 29984
Зарегистрирован: 09 апр 2015, 23:02


  • Похожие торренты
    Ответы
    Просмотры
    Последнее сообщение

Вернуться в Сериалы

Ресурс не предоставляет электронные версии произведений, а занимается лишь коллекционированием и каталогизацией ссылок, присылаемых и публикуемых на форуме нашими читателями. Если вы являетесь правообладателем какого-либо представленного материала и не желаете чтобы ссылка на него находилась в нашем каталоге, свяжитесь с нами и мы незамедлительно удалим её. Файлы для обмена на трекере предоставлены пользователями сайта, и администрация не несёт ответственности за их содержание. Просьба не заливать файлы, защищенные авторскими правами, а также файлы нелегального содержания!
cron