Discovery. Османы и христиане: Битва за Европу / Ottomans Versus Christians: Battle for Europe (2016) HDTVRip [H.264/720p-LQ] (1-2 серии из 3) [Обновляемая]

 
 Статистика раздачи 
Размер: 2.58 ГБ   |  Зарегистрирован: 14 дек 2016, 15:21   |   .torrent скачан: 1 раз
Сидеров: 1  [ 0 байт/сек ]     Личеров: 0  [ 0 байт/сек ]  
  

Discovery. Османы и христиане: Битва за Европу / Ottomans Versus Christians: Battle for Europe (2016) HDTVRip [H.264/720p-LQ] (1-2 серии из 3) [Обновляемая]

Сообщение explosiveone » 14 дек 2016, 15:21

Discovery. Османы и христиане: Битва за Европу / Ottomans Versus Christians: Battle for Europe (2016) HDTVRip [H.264/720p-LQ] (1-2 серии из 3) [Обновляемая]

Телекомпания: Pilot Production, Discovery Channel
Жанр: Документальный,история, исследование

Описание:
совершите путешествие вглубь истории, во времена, когда Восточная Европа была ареной противоборства между христианами и османами.

Продолжительность: ~ 00:44:00 (серия)
Качество видео: HDTVRip
Перевод: Одноголосый закадровый, профессиональный

Релиз от: Abakan2000

Видео: AVC/H.264, 1280x720, ~4000 Кбит/с
Аудио: MP3, 2 ch, 192 Кбит/с
Код: [pre]
Общее
Уникальный идентификатор                 : 2793594988122274347252967239290301518 (0x21A06DDF03C0D0C1F0D3999EB81AC4E)
Полное имя                               : Научно-популярные фильмы\Османы и христиане битва за Европу.720p RG HitWay\01 Османы и христиане.mkv
Формат                                   : Matroska
Версия формата                           : Version 2
Размер файла                             : 1,29 Гбайт
Продолжительность                        : 43 м. 57 с.
Режим общего битрейта                    : Постоянный
Общий поток                              : 4196 Кбит/сек
Программа кодирования                    : Lavf54.63.104
Библиотека кодирования                   : Lavf54.63.104 / Lavf54.63.104

Видео
Идентификатор                            : 1
Формат                                   : AVC
Формат/Информация                        : Advanced Video Codec
Профиль формата                          :
Параметр CABAC формата                   : Да
Параметр ReFrames формата                : 3 кадра
Параметр GOP формата                     : M=3, N=33
Идентификатор кодека                     : V_MPEG4/ISO/AVC
Продолжительность                        : 43 м. 57 с.
Вид битрейта                             : Постоянный
Битрейт                                  : 4000 Кбит/сек
Ширина                                   : 1280 пикселей
Высота                                   : 720 пикселей
Соотношение сторон                       : 16:9
Режим частоты кадров                     : Постоянный
Частота кадров                           : 30,000 кадров/сек
Стандарт вещания                         : NTSC
Цветовое пространство                    : YUV
Субдискретизация насыщенности            : 4:2:0
Битовая глубина                          : 8 бит
Тип развёртки                            : Прогрессивная
Бит/(Пиксели*Кадры)                      : 0.145
Размер потока                            : 1,20 Гбайт (93%)
Default                                  : Нет
Forced                                   : Нет
Цветовой диапазон                        : Limited
Основные цвета                           : BT.709
Характеристики трансфера                 : BT.709
Коэффициенты матрицы                     : BT.709

Аудио
Идентификатор                            : 2
Формат                                   : MPEG Audio
Версия формата                           : Version 1
Профиль формата                          : Layer 2
Идентификатор кодека                     : A_MPEG/L2
Идентификатор кодека/Подсказка           : MP2
Продолжительность                        : 43 м. 57 с.
Вид битрейта                             : Постоянный
Битрейт                                  : 192 Кбит/сек
Каналы                                   : 2 канала
Частота                                  : 48,0 КГц
Метод сжатия                             : С потерями
Задержка видео                           : 12 мс.
Размер потока                            : 60,4 Мбайт (5%)
Язык                                     : English
Default                                  : Да
Forced                                   : Нет
[/pre]
01. Строители империи /Empire Builders
02. Владыки Средиземного моря / Masters of the Mediterranean
Внимание! Раздача ведётся путём добавления новых серий; при каждом добавлении создfётся новый торрент. Чтобы начать докачку новой серии, пользователям необходимо сделать следующее: (1) остановить скачивание, (2) удалить старый торрент у себя из клиента (старые серии удалять не надо), (3) скачать новый торрент и запустить его у себя в клиенте вместо старого, при этом указать клиенту путь в старую папку куда и должно происходить скачивание новых серий.

Ваш клиент при этом должен произвести хеширование (проверку) старой папки (если не производит сам - помогите ему сделать это), и будет докачивать только те серии которых у вас ещё нет. Старые серии при этом не удаляются, а продолжают раздаваться!

Eсли вы уже удалили старые серии, то предотвратить повторную закачку старых серий можно, отжав галочку в соответсвующих местах при запуске нового торрента.

Скриншоты:




Время раздачи: 24/7 (до появления первых 3-5 скачавших)

Добавлено

02. Владыки Средиземного моря / Masters of the Mediterranean
 
Не забывайте говорить Спасибо. Не уходите с раздачи!   
Торрент: Зарегистрирован [14 дек 2016, 15:21] Для скачивания .torrent
необходима регистрация
Или скачать с помощью
MediaGet
Статус:
Проверен
 
.torrent скачан: 1 раз
Хэш: 0a0cfbac20b9f801749059393aff9d2b65e59f08
Размер: 2.58 ГБ (2 766 703 027 байт)
Стать Автором раздачи
 
 
Раздал: 100 ГБ
Скачал: 0 байт
Ратио: Seed.
Сообщения: 82289
Зарегистрирован: 09 апр 2015, 22:31


  • Похожие торренты
    Ответы
    Просмотры
    Последнее сообщение

Вернуться в Discovery

Кто сейчас на конференции

Сейчас эту тему просматривают: нет зарегистрированных пользователей и гости: 1

Ресурс не предоставляет электронные версии произведений, а занимается лишь коллекционированием и каталогизацией ссылок, присылаемых и публикуемых на форуме нашими читателями. Если вы являетесь правообладателем какого-либо представленного материала и не желаете чтобы ссылка на него находилась в нашем каталоге, свяжитесь с нами и мы незамедлительно удалим её. Файлы для обмена на трекере предоставлены пользователями сайта, и администрация не несёт ответственности за их содержание. Просьба не заливать файлы, защищенные авторскими правами, а также файлы нелегального содержания!