Эрмитаж (22 выпускa) (Михаил Трофимов) [2015-2016, Документальный цикл, познавательный, DVB, RU]

 
 Статистика раздачи 
Размер: 20.08 ГБ   |  Зарегистрирован: 14 дек 2016, 01:34   |   .torrent скачан: 1 раз
Сидеров: 1  [ 0 байт/сек ]     Личеров: 0  [ 0 байт/сек ]  
  

Эрмитаж (22 выпускa) (Михаил Трофимов) [2015-2016, Документальный цикл, познавательный, DVB, RU]

Сообщение aLaVodka » 14 дек 2016, 01:34

Эрмитаж

Дата/Год выпуска: 2015-2016
Страна: Россия
Жанр: Документальный цикл, познавательный
Продолжительность: 00:25:41
Перевод: Не требуется
Русские субтитры: нет
Рип: , dean10
Оригинальная аудиодорожка: русский
Режиссер: Михаил Трофимов

Телеканал: Культура
Описание:

Продолжение рассказов Михаила Пиотровского о сокровищах Эрмитажа и его истории

14.12.2016 _ добавил: Красота в глазах смотрящего,
перезаливаем
Больдини, звезда Belle Еpoque. Парижский шик, или Красота по-итальянски
Бродили с драконами под руку луны
Византия на берегах Невы
Зеркальные отражения Эрмитажа
И чистые сердца в нем пили благодать. Искусство буддизма в Петербурге
Изобретение античности
Испанцы. большая ротация
Красота в глазах смотрящего
Культура как хранитель религиозных ценностей
Любовь как чудо
Малый тронный. Возвращение
Мушкетеры: 400 лет спустя
Павел Первый и Мальтийский орден
Пальмира и Античное наследие Эрмитажа
Пальмира. Спецвыпуск (03.04.2016)
Персы
Понедельник
Райские кущи Эрмитажа
Рубенс в саду земных наслаждений
Счастливое платье императрицы
Театральные тайны
Эрмитаж-археолог
Сэмпл: http://multi-up.com/1070895

качество: DVB
формат: MPG
Видео: MPEG 2, 704x576, (4:3), 25 fps, 5 083 kbps
Аудио: MP2, 48 kHz, 2 ch, 256 kbps
Код: Выделить всё
General
Complete name                            : C:\Понедельник.mpg
Format                                   : MPEG-PS
File size                                : 1 001 MiB
Duration                                 : 25mn 41s
Overall bit rate mode                    : Variable
Overall bit rate                         : 5 448 Kbps

Video
ID                                       : 224 (0xE0)
Format                                   : MPEG Video
Format version                           : Version 2
Format profile                           : Main@Main
Format settings, BVOP                    : Yes
Format settings, Matrix                  : Custom
Format settings, GOP                     : M=3, N=15
Format settings, picture structure       : Frame
Duration                                 : 25mn 41s
Bit rate mode                            : Variable
Bit rate                                 : 5 083 Kbps
Maximum bit rate                         : 15.0 Mbps
Width                                    : 720 pixels
Height                                   : 576 pixels
Display aspect ratio                     : 4:3
Frame rate                               : 25.000 fps
Standard                                 : PAL
Color space                              : YUV
Chroma subsampling                       : 4:2:0
Bit depth                                : 8 bits
Scan type                                : Interlaced
Scan order                               : Top Field First
Compression mode                         : Lossy
Bits/(Pixel*Frame)                       : 0.490
Time code of first frame                 : 00:00:00:00
Time code source                         : Group of pictures header
GOP, Open/Closed                         : Closed
Stream size                              : 934 MiB (93%)

Audio
ID                                       : 192 (0xC0)
Format                                   : MPEG Audio
Format version                           : Version 1
Format profile                           : Layer 2
Duration                                 : 25mn 41s
Bit rate mode                            : Constant
Bit rate                                 : 256 Kbps
Channel(s)                               : 2 channels
Sampling rate                            : 48.0 KHz
Compression mode                         : Lossy
Delay relative to video                  : 1ms
Stream size                              : 47.1 MiB (5%)
 
Не забывайте говорить Спасибо. Не уходите с раздачи!   
Торрент: Зарегистрирован [14 дек 2016, 01:34] Для скачивания .torrent
необходима регистрация
Или скачать с помощью
MediaGet
Статус:
Проверен
 
.torrent скачан: 1 раз
Хэш: 991501547a17fde200899b3dfb9725cc71e7bf52
Размер: 20.08 ГБ (21 557 657 600 байт)
Стать Автором раздачи
 
 
Раздал: 100 ГБ
Скачал: 0 байт
Ратио: Seed.
Сообщения: 183248
Зарегистрирован: 09 апр 2015, 20:00


  • Похожие торренты
    Ответы
    Просмотры
    Последнее сообщение

Вернуться в Искусство, история искусств

Кто сейчас на конференции

Сейчас эту тему просматривают: нет зарегистрированных пользователей и гости: 1

Ресурс не предоставляет электронные версии произведений, а занимается лишь коллекционированием и каталогизацией ссылок, присылаемых и публикуемых на форуме нашими читателями. Если вы являетесь правообладателем какого-либо представленного материала и не желаете чтобы ссылка на него находилась в нашем каталоге, свяжитесь с нами и мы незамедлительно удалим её. Файлы для обмена на трекере предоставлены пользователями сайта, и администрация не несёт ответственности за их содержание. Просьба не заливать файлы, защищенные авторскими правами, а также файлы нелегального содержания!