31: Праздник смерти / 31 (2016) HDRip [H.264] [MP4|1024x428]

 
 Статистика раздачи 
Размер: 1.78 ГБ   |  Зарегистрирован: 13 дек 2016, 00:58   |   .torrent скачан: 0 раз
Сидеров: 1  [ 0 байт/сек ]     Личеров: 0  [ 0 байт/сек ]  
  

31: Праздник смерти / 31 (2016) HDRip [H.264] [MP4|1024x428]

Сообщение explosiveone » 13 дек 2016, 00:58

31: Праздник смерти / 31 (2016) HDRip

«A Rob Zombie film»

Производство: США, Великобритания / Bow and Arrow Entertainment, PalmStar Media, Protagonist Pictures
Жанр: Ужасы, Триллер

Режиссер: Роб Зомби
Актеры: Шери Мун Зомби, Джеффри Дэниэл Филлипс, Лоуренс Хилтон-Джакобс, Мег Фостер, Кевин Джексон, Малкольм МакДауэлл, Джейн Карр, Джуди Гисон, Ричард Брэйк, Панчо Молер

Описание:
История пяти людей, которые были похищены за пять дней до Хэллоуина и оказались пленниками в сотворенном человеком аду. Там им предстоит сыграть на выживание в жестокой игре под названием «31».


Возраст: 18+ (зрителям, достигшим 18 лет. запрещено для детей)
Рейтинг MPAA: R (лицам до 17 лет обязательно присутствие взрослого)

Релиз от: NNMClub
Продолжительность: 01:43:10
Качество видео: HDRip
Перевод: Многоголосый закадровый - (iTunes)
Вид субтитров: Вшитые отключаемые
Язык субтитров: Английский

Видео: AVC/H.264 (Main@L3.1), 1024x428 (2.40:1), 2200 Кбит/сек
Аудио #1: AAC, 2 канала, 128 Кбит/сек - русский (многоголосый закадровый)
Аудио #2: AAC, 2 канала, 128 Кбит/сек - английский
Код:
General
Complete name                            : C:\DGI\31.2016.576p.HDRip.AAC.h264.NNMclub.mp4
Format                                   : MPEG-4
Format profile                           : Base Media / Version 2
Codec ID                                 : mp42 (mp42/isom)
File size                                : 1.78 GiB
Duration                                 : 1 h 43 min
Overall bit rate mode                    : Variable
Overall bit rate                         : 2 464 kb/s
Movie name                               : 31
Performer                                : Rob Zombie
Director                                 : Rob Zombie
Actor                                    : Sheri Moon Zombie / Meg Foster / Richard Brake / Lew Temple / Malcolm McDowell
Screenplay by                            : Rob Zombie
Producer                                 : Rob Zombie / Andy Gould / Mike Elliott / Michael Sherman / Matthew Perniciaro / Eddie Vaisman
Genre                                    : Horror
ContentType                              : Short Film
Description                              : From the visionary mind of Rob Zombie comes the horrific story of five carnival workers who are
Recorded date                            : 2016-10-21
Encoded date                             : UTC 2016-12-12 20:06:34
Tagged date                              : UTC 2016-12-12 20:14:47
Cover                                    : Yes
LongDescription                          : From the visionary mind of Rob Zombie comes the horrific story of five carnival workers who are kidnapped the night before Halloween and held hostage in a large compound.  At the mercy of their captors, they are forced to play a twisted game of life or death called 31.  For the next 12 hours they must fight for their lives against an endless parade of homicidal maniacs.
AppleStoreCountry                        : United States
AppleStoreCatalogID                      : 1147808133
ContentRating                            : mpaa|R|400|

Video
ID                                       : 1
Format                                   : AVC
Format/Info                              : Advanced Video Codec
Format profile                           :
Format settings, CABAC                   : Yes
Format settings, ReFrames                : 3 frames
Codec ID                                 : avc1
Codec ID/Info                            : Advanced Video Coding
Duration                                 : 1 h 43 min
Bit rate                                 : 2 200 kb/s
Width                                    : 1 024 pixels
Height                                   : 428 pixels
Display aspect ratio                     : 2.40:1
Frame rate mode                          : Variable
Frame rate                               : 23.976 (24000/1001) FPS
Minimum frame rate                       : 23.810 FPS
Maximum frame rate                       : 24.390 FPS
Color space                              : YUV
Chroma subsampling                       : 4:2:0
Bit depth                                : 8 bits
Scan type                                : Progressive
Bits/(Pixel*Frame)                       : 0.209
Stream size                              : 1.59 GiB (89%)
Writing library                          : x264 core 148 r2744+55 950084e t_mod_Custom [8-bit@all X86_64]
Encoding settings                        : cabac=1 / ref=3 / deblock=1:-3:-3 / analyse=0x1:0x131 / me=umh / subme=7 / psy=1 / fade_compensate=0.00 / psy_rd=1.00:0.20 / mixed_ref=1 / me_range=32 / chroma_me=1 / trellis=2 / 8x8dct=0 / cqm=0 / deadzone=21,11 / fast_pskip=0 / chroma_qp_offset=-3 / threads=13 / lookahead_threads=2 / sliced_threads=0 / nr=0 / decimate=0 / interlaced=0 / bluray_compat=0 / constrained_intra=0 / fgo=0 / bframes=3 / b_pyramid=1 / b_adapt=2 / b_bias=0 / direct=3 / weightb=1 / open_gop=0 / weightp=2 / keyint=240 / keyint_min=23 / scenecut=37 / intra_refresh=0 / rc_lookahead=60 / rc=2pass / mbtree=1 / bitrate=2200 / ratetol=1.0 / qcomp=0.65 / qpmin=0:0:0 / qpmax=69:69:69 / qpstep=4 / cplxblur=20.0 / qblur=0.5 / vbv_maxrate=10000 / vbv_bufsize=10000 / nal_hrd=none / filler=0 / ip_ratio=1.40 / aq=3:0.90 / aq-sensitivity=10.00 / aq-factor=1.00:1.00:1.00 / aq2=1:0.80 / aq2-sensitivity=13.00 / aq2-factor=1.00:1.00:1.00 / aq3=3:[0.50:0.50]:[0.50:0.50]:[0.50:0.50]:[0.50:0.50] / aq3-sensitivity=10.00 / aq3-factor=[1.00:1.00]:[1.00:1.00]:[1.00:1.00] / aq3-boundary=192:64:24
Encoded date                             : UTC 2016-12-12 20:06:34
Tagged date                              : UTC 2016-12-12 20:14:47
Color range                              : Limited
Color primaries                          : BT.709
Transfer characteristics                 : BT.709
Matrix coefficients                      : BT.709
Menus                                    : 5

Audio #1
ID                                       : 2
Format                                   : AAC
Format/Info                              : Advanced Audio Codec
Format profile                           : LC
Codec ID                                 : 40
Duration                                 : 1 h 43 min
Source duration                          : 1 h 43 min
Bit rate mode                            : Variable
Bit rate                                 : 128 kb/s
Maximum bit rate                         : 133 kb/s
Channel(s)                               : 2 channels
Channel positions                        : Front: L R
Sampling rate                            : 48.0 kHz
Frame rate                               : 46.875 FPS (1024 spf)
Compression mode                         : Lossy
Stream size                              : 94.5 MiB (5%)
Source stream size                       : 94.5 MiB (5%)
Language                                 : Russian
Default                                  : Yes
Alternate group                          : 1
Encoded date                             : UTC 2016-12-12 20:06:34
Tagged date                              : UTC 2016-12-12 20:14:47

Audio #2
ID                                       : 3
Format                                   : AAC
Format/Info                              : Advanced Audio Codec
Format profile                           : LC
Codec ID                                 : 40
Duration                                 : 1 h 43 min
Source duration                          : 1 h 43 min
Bit rate mode                            : Variable
Bit rate                                 : 128 kb/s
Maximum bit rate                         : 133 kb/s
Channel(s)                               : 2 channels
Channel positions                        : Front: L R
Sampling rate                            : 48.0 kHz
Frame rate                               : 46.875 FPS (1024 spf)
Compression mode                         : Lossy
Stream size                              : 94.5 MiB (5%)
Source stream size                       : 94.5 MiB (5%)
Language                                 : English
Default                                  : No
Alternate group                          : 1
Encoded date                             : UTC 2016-12-12 20:06:34
Tagged date                              : UTC 2016-12-12 20:14:47

Text
ID                                       : 4
Format                                   : Timed Text
Muxing mode                              : sbtl
Codec ID                                 : tx3g
Duration                                 : 1 h 38 min
Bit rate mode                            : Variable
Bit rate                                 : 63 b/s
Stream size                              : 45.7 KiB (0%)
Language                                 : English
Default                                  : Yes
Forced                                   : No
Alternate group                          : 2
Encoded date                             : UTC 2016-12-12 20:06:34
Tagged date                              : UTC 2016-12-12 20:14:47

Menu
ID                                       : 5
Codec ID                                 : text
Duration                                 : 1 h 43 min
Language                                 : English
Encoded date                             : UTC 2016-12-12 20:14:47
Tagged date                              : UTC 2016-12-12 20:14:47
Bit rate mode                            : CBR
Menu For                                 : 1
00:00:00.000                             : 00:00:00.000
00:07:47.092                             : 00:07:47.092
00:16:18.144                             : 00:16:18.144
00:22:13.707                             : 00:22:13.707
00:28:18.529                             : 00:28:18.530
00:33:45.607                             : 00:33:45.607
00:39:32.287                             : 00:39:32.287
00:44:21.951                             : 00:44:21.951
00:51:28.585                             : 00:51:28.585
00:59:45.665                             : 00:59:45.665
01:08:53.880                             : 01:08:53.880
01:12:28.636                             : 01:12:28.636
01:18:22.907                             : 01:18:22.907
01:27:06.680                             : 01:27:06.680
01:34:46.139                             : 01:34:46.139
01:39:07.942                             : 01:39:07.942


Скриншоты:



Время раздачи: 24/7 (круглосуточно) (до появления первых 3-5 скачавших)
 
Не забывайте говорить Спасибо. Не уходите с раздачи!   
Торрент: Зарегистрирован [13 дек 2016, 00:58] Для скачивания .torrent
необходима регистрация
Или скачать с помощью
MediaGet
Статус:
Проверен
 
.torrent скачан: 0 раз
Хэш: 2a4d02db448a6de8de20447d3c0a51df194d28ec
Размер: 1.78 ГБ (1 906 967 441 байт)
Стать Автором раздачи
 
 
Раздал: 100 ГБ
Скачал: 0 байт
Ратио: Seed.
Сообщения: 94043
Зарегистрирован: 09 апр 2015, 22:31


  • Похожие торренты
    Ответы
    Просмотры
    Последнее сообщение

Вернуться в Видео для мобильных устройств

Ресурс не предоставляет электронные версии произведений, а занимается лишь коллекционированием и каталогизацией ссылок, присылаемых и публикуемых на форуме нашими читателями. Если вы являетесь правообладателем какого-либо представленного материала и не желаете чтобы ссылка на него находилась в нашем каталоге, свяжитесь с нами и мы незамедлительно удалим её. Файлы для обмена на трекере предоставлены пользователями сайта, и администрация не несёт ответственности за их содержание. Просьба не заливать файлы, защищенные авторскими правами, а также файлы нелегального содержания!
cron