Орел и решка. Шопинг (2016.12.11) SATRip (неизданное, часть 3)

 
 Статистика раздачи 
Размер: 557 МБ   |  Зарегистрирован: 11 дек 2016, 21:27   |   .torrent скачан: 0 раз
Сидеров: 1  [ 0 байт/сек ]     Личеров: 0  [ 0 байт/сек ]  
  

Орел и решка. Шопинг (2016.12.11) SATRip (неизданное, часть 3)

Сообщение explosiveone » 11 дек 2016, 21:27

Орел и решка. Шопинг (2016.12.11) SATRip (неизданное, часть 3)

Телекомпания: ИНТЕР & Пятница &
Жанр: Реалити-шоу, путешествия, география, познавательный

Ведущий: Константин Октябрьский, Мария Ивакова, Антон Лаврентьев и др.

Описание:
Ведущие пройдутся по самым популярным заграничным шопинг-маршрутам. Дорогие бутики и блошиные рынки, новые имена в индустрии моды и раритетные винтажные вещицы — ведущие проинспектируют все. Эта программа — настоящий кладезь полезной информации для шопоголиков. Ведущие посетят: Гонконг, Майами, Канкун, Мехико, Сингапур, Ханой, Куала-Лумпур и многие другие города. «Орел и решка. Шопинг» — это самостоятельный и параллельный проект с основной программой


Возраст: 12+ (зрителям, достигшим 12 лет)

Релиз от: Thunder
Продолжительность: ~ 00:45:49
Качество видео: SATRip
Субтитры: Отсутствуют

Видео: MPEG4, XviD, 720x400 (16:9), 25.000 fps, 1 498 Kbps (0.208 bit/pixel)
Аудио: AC-3, 48.0 KHz, 2 ch, 192 Kbps, CBR
Код:  Общее
Полное имя                               : D:\[1]\Орел и решка. Шопинг\Орел и решка. Шопинг. Неизданное. Часть 3 (2016.12.11).avi
Формат                                   : AVI
Формат/Информация                        : Audio Video Interleave
Размер файла                             : 557 Мбайт
Продолжительность                        : 45 м.
Общий поток                              : 1700 Кбит/сек
Название фильма                          : e03. Неизданное. Шопинг [2016]
Режиссёр                                 : SATRip by Thunder
Программа кодирования                    : VirtualDubMod 1.5.10.3 | www.virtualdub-fr.org || (build 2550/release) VirtualDubMod build 2550/release
Формат оригинала/Имя                     : Documentary

Видео
Идентификатор                            : 0
Формат                                   : MPEG-4 Visual
Профиль формата                          : Advanced Simple@L5
Параметр BVOP формата                    : 1
Параметр QPel формата                    : Нет
Параметр GMC формата                     : Без точки перехода
Параметр матрицы формата                 : Выборочная
Идентификатор кодека                     : XVID
Идентификатор кодека/Подсказка           : XviD
Продолжительность                        : 45 м.
Битрейт                                  : 1498 Кбит/сек
Ширина                                   : 720 пикселей
Высота                                   : 400 пикселей
Соотношение сторон                       : 16:9
Частота кадров                           : 25,000 кадров/сек
Цветовое пространство                    : YUV
Субдискретизация насыщенности            : 4:2:0
Битовая глубина                          : 8 бит
Тип развёртки                            : Прогрессивная
Метод сжатия                             : С потерями
Бит/(Пиксели*Кадры)                      : 0.208
Размер потока                            : 491 Мбайт (88%)
Библиотека кодирования                   : XviD 1.2.1 (UTC 2008-12-04)

Аудио
Идентификатор                            : 1
Формат                                   : AC-3
Формат/Информация                        : Audio Coding 3
Расширение режима                        : CM (complete main)
Параметр Endianness формата              : Big
Идентификатор кодека                     : 2000
Продолжительность                        : 45 м.
Вид битрейта                             : Постоянный
Битрейт                                  : 192 Кбит/сек
Каналы                                   : 2 канала
Расположение каналов                     : Front: L R
Частота                                  : 48,0 КГц
Битовая глубина                          : 16 бит
Метод сжатия                             : С потерями
Размер потока                            : 62,9 Мбайт (11%)
Выравнивание                             : Разделение по промежуткам
Продолжительность промежутка             : 40  мс. (1,00 видеокадр)
Время предзагрузки промежутка            : 500  мс.
Язык                                     : Undefined
 
Панама, Гамбург, Янгон, Львов

Скриншоты:



Время раздачи: 24/7. До первых 5 скачавших.
 
Не забывайте говорить Спасибо. Не уходите с раздачи!   
Торрент: Зарегистрирован [11 дек 2016, 21:27] Для скачивания .torrent
необходима регистрация
Или скачать с помощью
MediaGet
Статус:
Проверен
 
.torrent скачан: 0 раз
Хэш: 1b19b3744f2ba317be1dc40a78201235ff7454d3
Размер: 557 МБ (584 058 794 байт)
Стать Автором раздачи
 
 
Раздал: 100 ГБ
Скачал: 0 байт
Ратио: Seed.
Сообщения: 85653
Зарегистрирован: 09 апр 2015, 22:31


  • Похожие торренты
    Ответы
    Просмотры
    Последнее сообщение

Вернуться в Путешествия и туризм (видео)

Кто сейчас на конференции

Сейчас эту тему просматривают: нет зарегистрированных пользователей и гости: 1

Ресурс не предоставляет электронные версии произведений, а занимается лишь коллекционированием и каталогизацией ссылок, присылаемых и публикуемых на форуме нашими читателями. Если вы являетесь правообладателем какого-либо представленного материала и не желаете чтобы ссылка на него находилась в нашем каталоге, свяжитесь с нами и мы незамедлительно удалим её. Файлы для обмена на трекере предоставлены пользователями сайта, и администрация не несёт ответственности за их содержание. Просьба не заливать файлы, защищенные авторскими правами, а также файлы нелегального содержания!