Открытие Китая (2016) WEB-DL [H.264/720p-LQ] (серии 1-26) ОБНОВЛЯЕМАЯ

 
 Статистика раздачи 
Размер: 18.44 ГБ   |  Зарегистрирован: 11 дек 2016, 17:00   |   .torrent скачан: 0 раз
Сидеров: 1  [ 0 байт/сек ]     Личеров: 0  [ 0 байт/сек ]  
  

Открытие Китая (2016) WEB-DL [H.264/720p-LQ] (серии 1-26) ОБНОВЛЯЕМАЯ

Сообщение explosiveone » 11 дек 2016, 17:00

Открытие Китая (2016) WEB-DL [H.264] (серии 1-26) [MP4|1280x720] ОБНОВЛЯЕМАЯ

Телекомпания: Первый канал HD
Жанр: Документальный, познавательный, путешествия

Участники: Евгений Колесов, жители Китая

Описание:
"Открытие Китая" - это цикл авторских документальных фильмов о Поднебесной. Автор Евгений Колесов – не профессиональный журналист, а бизнесмен.
Двадцать лет назад, еще студентом, он поехал в Китай учиться, да так там и остался. Основал заграницей успешную консалтинговую фирму, женился на русской девушке, родил четверых детей. А потом как человек творческий и неравнодушный стал выкладывать в интернете свои любительские репортажи о Китае. В этих репортажах Евгений рассказывал обо всем, что цепляло русского человека, попавшего на чужбину: как у них там устроены детские сады, как возводят небоскребы, как выращивают арбузы.
Любительские репортажи Евгения Колесова легли в основу телепередачи "Открытие Китая". Автор расскажет много любопытного и неожиданного. Зрители узнают, как можно заработать миллион на продаже семечек; сколько в китайских магазинах стоит российский шоколад; почему детей в китайских садиках укладывают спать в пластмассовые корытца в шапках.

Внимание! Раздаваемые файлы являются точной копией потокового видео на сайте Первого. Поэтому в кадре присутствует лого канала, а также иногда появляются рекламные баннеры в разных частях экрана.
01. Открытие Китая
02. Китайская свадьба
03. Кантонская башня
04. Деревенская школа
05. Китайская кухня
06. Поезда
07. Китайские трущобы
08. Панды
09. Китайская деревня
10. Пешеходные дорожки
11. Китайская фабрика
12. Мебельный рай
13. Китайский чай
14. Китайский средний класс
15. Шаолиньский монастырь (Часть 1)
16. Шаолиньский монастырь (Часть 2)
17. Нефрит
18. Автомобили
19. Уличная еда
20. Китайский парк
21. Кантонская ярмарка
22. Такси
23. Индустрия спорта
24. Фотосалоны
25. Культ предков
26. Город художников
Продолжительность: 00:25:59
Качество видео: WEB-DL

Видео: AVC/H.264, 1280х720, ~3 800 kbps
Аудио: AAC, 2 ch, 128 kbps, VBR
Код: Выделить всё
General
Complete name               : Открытие Китая с Евгением Колесовым. Выпуск 1 (28.02.2016).mp4
Format                      : MPEG-4
Format profile              : Base Media
Codec ID                    : isom (isom/iso2/avc1/mp41)
File size                   : 727 MiB
Duration                    : 25 min 59 s
Overall bit rate mode       : Variable
Overall bit rate            : 3 911 kb/s
Writing application         : Lavf53.32.100

Video
ID                          : 1
Format                      : AVC
Format/Info                 : Advanced Video Codec
Format profile              :
Format settings, CABAC      : Yes
Format settings, ReFrames   : 4 frames
Codec ID                    : avc1
Codec ID/Info               : Advanced Video Coding
Duration                    : 25 min 59 s
Bit rate                    : 3 800 kb/s
Width                       : 1 280 pixels
Height                      : 720 pixels
Display aspect ratio        : 16:9
Frame rate mode             : Constant
Frame rate                  : 25.000 FPS
Color space                 : YUV
Chroma subsampling          : 4:2:0
Bit depth                   : 8 bits
Scan type                   : Progressive
Bits/(Pixel*Frame)          : 0.165
Stream size                 : 707 MiB (97%)
Writing library             : x264 core 118
Encoding settings           : cabac=1 / ref=3 / deblock=1:0:0 / analyse=0x3:0x133 / me=hex / subme=9 / psy=1 / psy_rd=1.00:0.00 / mixed_ref=1 / me_range=16 / chroma_me=1 / trellis=1 / 8x8dct=1 / cqm=0 / deadzone=21,11 / fast_pskip=1 / chroma_qp_offset=-2 / threads=36 / sliced_threads=0 / nr=0 / decimate=1 / interlaced=0 / bluray_compat=0 / constrained_intra=0 / bframes=3 / b_pyramid=2 / b_adapt=1 / b_bias=0 / direct=1 / weightb=1 / open_gop=0 / weightp=2 / keyint=25 / keyint_min=13 / scenecut=0 / intra_refresh=0 / rc_lookahead=25 / rc=abr / mbtree=0 / bitrate=3800 / ratetol=1.0 / qcomp=0.60 / qpmin=0 / qpmax=40 / qpstep=4 / vbv_maxrate=4500 / vbv_bufsize=3800 / nal_hrd=none / ip_ratio=1.40 / pb_ratio=1.30 / aq=1:1.00

Audio
ID                          : 2
Format                      : AAC
Format/Info                 : Advanced Audio Codec
Format profile              : LC
Codec ID                    : 40
Duration                    : 25 min 59 s
Bit rate mode               : Variable
Bit rate                    : 104 kb/s
Maximum bit rate            : 128 kb/s
Channel(s)                  : 2 channels
Channel positions           : Front: L R
Sampling rate               : 48.0 kHz
Frame rate                  : 46.875 FPS (1024 spf)
Compression mode            : Lossy
Stream size                 : 19.3 MiB (3%)
Default                     : Yes
Alternate group             : 1
При каждом добавлении создаётся новый торрент. Чтобы начать докачку новой серии, пользователям необходимо сделать следующее:
1. Остановить скачивание;
2. Удалить старый торрент у себя из клиента (старые серии удалять не надо);
3. Скачать новый торрент и запустить его у себя в клиенте вместо старого, при этом указать клиенту путь в старую папку куда и должно происходить скачивание новых серий. Ваш клиент при этом должен произвести хеширование (проверку) старой папки и будет докачивать только те серии, которых у вас ещё нет. Старые серии при этом не удаляются, а продолжают раздаваться! Eсли вы уже удалили старые серии, то предотвратить повторную закачку старых серий можно, отжав галочку в соответствующих местах при запуске нового торрента.

Скриншоты:



Время раздачи: Пн-Пт с 18:00 до 22:00, Сб-Вс с 09:00 до 23:00 (до появления первых 3-5 скачавших)
 
Не забывайте говорить Спасибо. Не уходите с раздачи!   
Торрент: Зарегистрирован [11 дек 2016, 17:00] Для скачивания .torrent
необходима регистрация
Или скачать с помощью
MediaGet
Статус:
Проверен
 
.torrent скачан: 0 раз
Хэш: e5cc900ecb954888e84bc2b25f67a1131fecbe9d
Размер: 18.44 ГБ (19 796 368 039 байт)
Стать Автором раздачи
 
 
Раздал: 100 ГБ
Скачал: 0 байт
Ратио: Seed.
Сообщения: 94015
Зарегистрирован: 09 апр 2015, 22:31


  • Похожие торренты
    Ответы
    Просмотры
    Последнее сообщение

Вернуться в Видео для мобильных устройств

Ресурс не предоставляет электронные версии произведений, а занимается лишь коллекционированием и каталогизацией ссылок, присылаемых и публикуемых на форуме нашими читателями. Если вы являетесь правообладателем какого-либо представленного материала и не желаете чтобы ссылка на него находилась в нашем каталоге, свяжитесь с нами и мы незамедлительно удалим её. Файлы для обмена на трекере предоставлены пользователями сайта, и администрация не несёт ответственности за их содержание. Просьба не заливать файлы, защищенные авторскими правами, а также файлы нелегального содержания!
cron