Легендарные самолеты (2016) SATRip (3 сезон: 3 серии из ??) (Обновляемая)

 
 Статистика раздачи 
Размер: 1.6 ГБ   |  Зарегистрирован: 11 дек 2016, 16:59   |   .torrent скачан: 149 раз
Сидеров: 3  [ 0 байт/сек ]     Личеров: 0  [ 0 байт/сек ]  
  

Легендарные самолеты (2016) SATRip (3 сезон: 3 серии из ??) (Обновляемая)

Сообщение explosiveone » 11 дек 2016, 16:59

Легендарные самолеты (2016) SATRip (3 сезон: 3 серии из ??) (Обновляемая)

Телекомпания: Россия, ВИАНЖ ПРОДАКШН, ОАО «ТРК ВС РФ «ЗВЕЗДА»
Жанр: Документальный, авиация, история

Описание:
Документальный сериал из цикла о легендарной советской и российской авиационной технике и людях, чей целью в жизни стало создание лучших самолетов и вертолетов. Сериал расскажет об истории создания, испытаниях и боевого применения и эксплуатации этих уникальных крылатых машин. В него вошли материалы летных испытаний, интервью с летчиками-испытателями, историками авиации, военными летчиками.

Релиз от: alf62

БОЛЬШОЕ СПАСИБО Barents, за предоставленный постер!

Продолжительность: 3 х ~ 00:37:50
Качество видео: SATRip

Видео: Xvid, 720x400, ~1800 Kbps
Аудио: AC3, 2 ch, 192 Kbps, CBR
Сезон 3, фильм 1. Ту-104. Турбулентность ясного неба
22 марта 1956 года. Англия, Лондон. В аэропорту Хитроу ожидали прибытия высокого гостя - зам. председателя Совмина СССР Георгия Маленкова. Он летел готовить предстоящий визит лидера советского государства Никиты Хрущева. Когда из пелены облаков и дождя вынырнула серебристая стрела самолета, даже бывалые летчики ахнули. Нет привычных винтов, стреловидное крыло и оперение, двухэтажная кабина экипажа и всего два двигателя, прижатых к фюзеляжу. На киле - ярко-алый флаг. Советы создали свой реактивный пассажирский самолет! Это был Ту-104 прославленного КБ Андрея Туполева.
Вскоре лайнер выходит на регулярные авиалинии, и тут происходит череда катастроф. После мирового триумфа Туполев поставлен перед непростым выбором: снимать Ту-104 с эксплуатации или попытаться решить возникшие проблемы.

Сезон 3, фильм 2. Бе-200. «Летучий голландец»
Невероятным образом переплелись судьбы человека и самолёта - Валерия Крузе, заместителя директора авиационно-спасательной компании МЧС России, и самолёта-амфибии Бе-200, лучшей в мире машины для тушения лесных пожаров. Этот фильм - рассказ о выходце из семьи первых голландских переселенцев в Россию, бывшем лётчике морской авиации ВМФ России, влюбившемся в Бе-200. И об истории создания, испытаний и применения уникального самолета.

Сезон 3, фильм 3. МиГ-21
Вьетнам, 27 декабря 1972 года. Старший лейтенант Фам Туан вылетает на перехват американских стратегических бомбардировщиков Б-52, держащих курс на Ханой. Каждая машина несет до 27 тонн смертоносного груза. Перехватив Б-52 на высоте 10 километров, Фам Туан произвел пуск ракет. Обломки бомбардировщика рухнули всего в нескольких километрах от города. Самолёт, на котором лётчик пошёл на перехват, являлся одним из лучших в ХХ веке. Он стал самым массовым сверхзвуковым истребителем в мире. Это был МиГ-21 Опытного конструкторского бюро Артёма Микояна.
Код: Выделить всё
Легендарные.самолеты.(S3.Ep1).Ту-104.Турбулентность.ясного.неба.2016.XviD.SATRip.alf62.avi
Формат                                   : AVI
Формат/Информация                        : Audio Video Interleave
Размер файла                             : 542 Мбайт
Продолжительность                        : 37 м.
Общий поток                              : 2001 Кбит/сек
Программа кодирования                    : VirtualDubMod 1.5.10.3 | [url=http://www.virtualdub-fr.org]www.virtualdub-fr.org[/url] || (build 2550/release)
Библиотека кодирования                   : VirtualDubMod build 2550/release
Видео
Идентификатор                            : 0
Формат                                   : MPEG-4 Visual
Профиль формата                          : Advanced Simple@L5
Параметр BVOP формата                    : 2
Параметр QPel формата                    : Нет
Параметр GMC формата                     : Без точки перехода
Параметр матрицы формата                 : Default (MPEG)
Идентификатор кодека                     : XVID
Идентификатор кодека/Подсказка           : XviD
Продолжительность                        : 37 м.
Битрейт                                  : 1800 Кбит/сек
Ширина                                   : 720 пикселей
Высота                                   : 400 пикселей
Соотношение сторон                       : 16:9
Частота кадров                           : 25,000 кадров/сек
Цветовое пространство                    : YUV
Субдискретизация насыщенности            : 4:2:0
Битовая глубина                          : 8 бит
Тип развёртки                            : Прогрессивная
Метод сжатия                             : С потерями
Бит/(Пиксели*Кадры)                      : 0.250
Размер потока                            : 487 Мбайт (90%)
Библиотека кодирования                   : XviD 73
Аудио
Идентификатор                            : 1
Формат                                   : AC-3
Формат/Информация                        : Audio Coding 3
Расширение режима                        : CM (complete main)
Параметр Endianness формата              : Big
Идентификатор кодека                     : 2000
Продолжительность                        : 37 м.
Вид битрейта                             : Постоянный
Битрейт                                  : 192 Кбит/сек
Каналы                                   : 2 канала
Расположение каналов                     : Front: L R
Частота                                  : 48,0 КГц
Битовая глубина                          : 16 бит
Метод сжатия                             : С потерями
Размер потока                            : 52,0 Мбайт (10%)
Выравнивание                             : Разделение по промежуткам
Продолжительность промежутка             : 40  мс. (1,00 видеокадр)
Время предзагрузки промежутка            : 500  мс.

Скриншоты:











Время раздачи: до появления первых 3-5 скачавших
 
Не забывайте говорить Спасибо. Не уходите с раздачи!   
Торрент: Зарегистрирован [11 дек 2016, 16:59] Для скачивания .torrent
необходима регистрация
Или скачать с помощью
MediaGet
Статус:
Проверен
 
.torrent скачан: 149 раз
Хэш: bafa393ace5791a8d7fdb907c2f57947fa5b8877
Размер: 1.6 ГБ (1 714 814 976 байт)
Стать Автором раздачи
 
 
Раздал: 100 ГБ
Скачал: 0 байт
Ратио: Seed.
Сообщения: 89734
Зарегистрирован: 09 апр 2015, 22:31


Вернуться в Авиация (видео)

Ресурс не предоставляет электронные версии произведений, а занимается лишь коллекционированием и каталогизацией ссылок, присылаемых и публикуемых на форуме нашими читателями. Если вы являетесь правообладателем какого-либо представленного материала и не желаете чтобы ссылка на него находилась в нашем каталоге, свяжитесь с нами и мы незамедлительно удалим её. Файлы для обмена на трекере предоставлены пользователями сайта, и администрация не несёт ответственности за их содержание. Просьба не заливать файлы, защищенные авторскими правами, а также файлы нелегального содержания!
cron