Живи (Елена Пискарева) [2016, драма, короткометражный, DVDRip]

 
 Статистика раздачи 
Размер: 202.4 МБ   |  Зарегистрирован: 11 дек 2016, 14:55   |   .torrent скачан: 1 раз
Сидеров: 3  [ 0 байт/сек ]     Личеров: 1  [ 0 байт/сек ]  
  

Живи (Елена Пискарева) [2016, драма, короткометражный, DVDRip]

Сообщение aLaVodka » 11 дек 2016, 14:55

Живи


Жанр: драма, короткометражный
Год выпуска
: 2016
Продолжительность: 00:16:46
Режиссёр: Елена Пискарева
В ролях: Мария Хлопецкая, Наталья Борисова, Олеся Астапова, Дарья Молчанова, Екатерина Ратушинская, Юлия Рябова, Юлия Кан, Мария Шаброва, Ольга Волочкина

Описание: В палате больницы ждут своей очереди на аборт восемь женщин. Все они разных возрастов, но их объединяет одно- у всех у них очень веская, как им кажется, причина, почему они здесь и решились на такой страшный шаг. В непринужденных разговорах одна за другой уходят в кабинет и возвращаются... Уже после...

Доп. информация: О. Дмитрий Смирнов: *...Я хочу попросить тех, кто имеет дело с интернетом: постарайтесь распространить этот фильм как можно шире. Мне хотелось бы, чтоб он обошёл не только нашу страну, а вообще всю христианскую Европу, чтобы люди, наконец, подумали об одной простой вещи: что убивать собственных детей – это очень нехорошо. И не надо потом надеяться, что после того, как руки твои испачкались по локоть в крови, а ноги хлюпают в лужах крови убитых тобой младенцев, ты обретёшь какое-то счастье. На какое-то благополучное замужество или на какую-то радостную жизнь рассчитывать после детоубийства просто нелепо. Никакого счастья человек не может получить, если он убийца собственных детей. Таких людоедов, как наш народ, нужно с лица земли стереть, и только огромная милость Божия к нам (потому что мы все Его дети) спасает нас от гнева Божия. Но если мы не очнёмся, гнев Божий падёт на нас...*

Качество видео: DVDRip
Формат видео: AVI
Видео: MPEG4, XviD, 720x576 (16:9), 25.000 fps, 1 496 Kbps (0.144 bit/pixel)
Аудио: MP3, 44.1 KHz, 2 ch, 32.0 Kbps, CBR
General
Complete name : G:\документалка\Живи.avi
Format : AVI
Format/Info : Audio Video Interleave
File size : 202 MiB
Duration : 16mn 46s
Overall bit rate : 1 687 Kbps
Writing application : MEncoder 1.0rc4-4.1.2
Writing library : MPlayer

Video
ID : 0
Format : MPEG-4 Visual
Format profile : Advanced [email protected]
Format settings, BVOP : 2
Format settings, QPel : No
Format settings, GMC : No warppoints
Format settings, Matrix : Default (MPEG)
Codec ID : XVID
Codec ID/Hint : XviD
Duration : 16mn 46s
Bit rate : 1 496 Kbps
Width : 720 pixels
Height : 576 pixels
Display aspect ratio : 16:9
Frame rate : 25.000 fps
Standard : PAL
Color space : YUV
Chroma subsampling : 4:2:0
Bit depth : 8 bits
Scan type : Progressive
Compression mode : Lossy
Bits/(Pixel*Frame) : 0.144
Stream size : 179 MiB (89%)
Writing library : XviD 63

Audio
ID : 1
Format : MPEG Audio
Format version : Version 1
Format profile : Layer 3
Codec ID : 55
Codec ID/Hint : MP3
Duration : 16mn 46s
Bit rate mode : Constant
Bit rate : 32.0 Kbps
Channel(s) : 2 channels
Sampling rate : 44.1 KHz
Compression mode : Lossy
Stream size : 21.4 MiB (11%)
Alignment : Aligned on interleaves
Interleave, duration : 26 ms (0.65 video frame)
Interleave, preload duration : 93 ms
Writing library : LAME3.98.4
 
Не забывайте говорить Спасибо. Не уходите с раздачи!   
Торрент: Зарегистрирован [11 дек 2016, 14:55] Для скачивания .torrent
необходима регистрация
Или скачать с помощью
MediaGet
Статус:
Проверен
 
.torrent скачан: 1 раз
Хэш: 6f3518a48fa0532e6279a15791d00dc5ddf3d080
Размер: 202.4 МБ (212 226 686 байт)
Стать Автором раздачи
 
 
Раздал: 100 ГБ
Скачал: 0 байт
Ратио: Seed.
Сообщения: 175585
Зарегистрирован: 09 апр 2015, 20:00


  • Похожие торренты
    Ответы
    Просмотры
    Последнее сообщение

Вернуться в Авторские дебюты

Кто сейчас на конференции

Сейчас эту тему просматривают: нет зарегистрированных пользователей и гости: 1

Ресурс не предоставляет электронные версии произведений, а занимается лишь коллекционированием и каталогизацией ссылок, присылаемых и публикуемых на форуме нашими читателями. Если вы являетесь правообладателем какого-либо представленного материала и не желаете чтобы ссылка на него находилась в нашем каталоге, свяжитесь с нами и мы незамедлительно удалим её. Файлы для обмена на трекере предоставлены пользователями сайта, и администрация не несёт ответственности за их содержание. Просьба не заливать файлы, защищенные авторскими правами, а также файлы нелегального содержания!