Битва экстрасенсов (2016.12.10) WEB-DL [H.264/720p-LQ] (сезон 17, выпуск 15)

 
 Статистика раздачи 
Размер: 1.95 ГБ   |  Зарегистрирован: 11 дек 2016, 04:01   |   .torrent скачан: 3 раз
Сидеров: 1  [ 0 байт/сек ]     Личеров: 0  [ 0 байт/сек ]  
  

Битва экстрасенсов (2016.12.10) WEB-DL [H.264/720p-LQ] (сезон 17, выпуск 15)

Сообщение explosiveone » 11 дек 2016, 04:01

Битва экстрасенсов (2016.12.10) WEB-DL [H.264/720p-LQ] (сезон 17, выпуск 15)

Телекомпания: ТНТ
Жанр: Реалити Шоу

Ведущий: Марат Башаров

Описание:
С 3 сентября на ТНТ стартует долгожданный 17-й сезон «Битвы экстрасенсов» — самого мистического, непредсказуемого и загадочного проекта российского ТВ. Масштабный кастинг, новые яркие участники и высокие технологии в мире экстрасенсорики. Новый сезон обещает стать самым необычным и удивительным в истории шоу. «Мне бы очень хотелось, чтобы в новом сезоне экстрасенсы поменьше обращали бы внимание на свою самореализацию, а больше помогали людям. Ведь каждый сезон к нам обращаются те, кто действительно ждет помощи. И это, по-моему, для людей со сверхспособностями должно быть приоритетным!», — Марат Башаров, ведущий проекта.

Продолжительность: ~ 01:13:43
Качество видео: WEB-DL
Субтитры: Отсутствуют

Видео: AVC, 1280x720 (16:9), 50.000 fps, 3 516 Kbps (0.076 bit/pixel)
Аудио: AC-3, 48.0 KHz, 2 ch, 192 Kbps, CBR
Код:  Общее
Уникальный идентификатор                 : 217301340306809605911532198428160542616 (0xA37AB740529CB14BB92953C47A83C798)
Полное имя                               : D:\[1]\Битва экстрасенсов\Битва экстрасенсов. Сезон 17. Выпуск 15 (2016.12.10)_720.mkv
Формат                                   : Matroska
Версия формата                           : Version 2
Размер файла                             : 1,95 Гбайт
Продолжительность                        : 1 ч. 13 м.
Общий поток                              : 3783 Кбит/сек
Дата кодирования                         : UTC 2016-12-10 17:42:08
Программа кодирования                    : mkvmerge v7.9.0 ('Birds') 64bit
Библиотека кодирования                   : libebml v1.3.1 + libmatroska v1.4.2
DURATION                                 : 01:13:43.296000000
NUMBER_OF_FRAMES                         : 138228
NUMBER_OF_BYTES                          : 106159104
_STATISTICS_WRITING_APP                  : mkvmerge v7.9.0 ('Birds') 64bit
_STATISTICS_WRITING_DATE_UTC             : 2016-12-10 17:42:08
_STATISTICS_TAGS                         : BPS DURATION NUMBER_OF_FRAMES NUMBER_OF_BYTES

Видео
Идентификатор                            : 1
Формат                                   : AVC
Формат/Информация                        : Advanced Video Codec
Профиль формата                          :
Параметр CABAC формата                   : Да
Параметр ReFrames формата                : 1 кадр
Параметр GOP формата                     : M=1, N=12
Идентификатор кодека                     : V_MPEG4/ISO/AVC
Продолжительность                        : 1 ч. 13 м.
Битрейт                                  : 3516 Кбит/сек
Ширина                                   : 1280 пикселей
Высота                                   : 720 пикселей
Соотношение сторон                       : 16:9
Режим частоты кадров                     : Постоянный
Частота кадров                           : 25,000 кадров/сек
Стандарт вещания                         : Component
Цветовое пространство                    : YUV
Субдискретизация насыщенности            : 4:2:0
Битовая глубина                          : 8 бит
Тип развёртки                            : Прогрессивная
Бит/(Пиксели*Кадры)                      : 0.153
Размер потока                            : 1,81 Гбайт (93%)
Default                                  : Да
Forced                                   : Нет
Цветовой диапазон                        : Limited

Аудио
Идентификатор                            : 2
Формат                                   : AC-3
Формат/Информация                        : Audio Coding 3
Расширение режима                        : CM (complete main)
Параметр Endianness формата              : Big
Идентификатор кодека                     : A_AC3
Продолжительность                        : 1 ч. 13 м.
Вид битрейта                             : Постоянный
Битрейт                                  : 192 Кбит/сек
Каналы                                   : 2 канала
Расположение каналов                     : Front: L R
Частота                                  : 48,0 КГц
Битовая глубина                          : 16 бит
Метод сжатия                             : С потерями
Размер потока                            : 101 Мбайт (5%)
Default                                  : Да
Forced                                   : Нет
 

Скриншоты:


Время раздачи: 24/7. До первых 5 скачавших.
 
Не забывайте говорить Спасибо. Не уходите с раздачи!   
Торрент: Зарегистрирован [11 дек 2016, 04:01] Для скачивания .torrent
необходима регистрация
Или скачать с помощью
MediaGet
Статус:
Проверен
 
.torrent скачан: 3 раз
Хэш: a1af13ed058855a98a937832f2459f8ad2f0b36f
Размер: 1.95 ГБ (2 092 027 006 байт)
Стать Автором раздачи
 
 
Раздал: 100 ГБ
Скачал: 0 байт
Ратио: Seed.
Сообщения: 92091
Зарегистрирован: 09 апр 2015, 22:31


  • Похожие торренты
    Ответы
    Просмотры
    Последнее сообщение

Вернуться в Паранормальные явления

Ресурс не предоставляет электронные версии произведений, а занимается лишь коллекционированием и каталогизацией ссылок, присылаемых и публикуемых на форуме нашими читателями. Если вы являетесь правообладателем какого-либо представленного материала и не желаете чтобы ссылка на него находилась в нашем каталоге, свяжитесь с нами и мы незамедлительно удалим её. Файлы для обмена на трекере предоставлены пользователями сайта, и администрация не несёт ответственности за их содержание. Просьба не заливать файлы, защищенные авторскими правами, а также файлы нелегального содержания!
cron