NG: Марс / Mars (2016) WEB-DL [H.264/1080p-LQ] (сезон 1, серия 1-4 из 6) (обновляемая)

 
 Статистика раздачи 
Размер: 7.56 ГБ   |  Зарегистрирован: 10 дек 2016, 20:44   |   .torrent скачан: 0 раз
Сидеров: 1  [ 0 байт/сек ]     Личеров: 0  [ 0 байт/сек ]  
  

NG: Марс / Mars (2016) WEB-DL [H.264/1080p-LQ] (сезон 1, серия 1-4 из 6) (обновляемая)

Сообщение explosiveone » 10 дек 2016, 20:45

NG: Марс / Mars (2016) WEB-DL [H.264/1080p-LQ]

Производство: США, Imagine Entertainment, Radical Media, Zak Productions
Жанр: Документально-постановочный, фантастика, драма, приключения

Режиссер: Эверардо Валерио Гоут
Актеры: Альберто Амман, Бен Коттон, Ката Сарбо, Николас Уиттман, Карен Ганьон, Том Нгуйен, Ген Сето, Наранцогт Цогцаикхан, Цогбаатар Бацориг, Алекс Саракко

Описание:
Действие приключенческого сериала происходит в настоящем и недалеком будущем. В 2033 году на красную планету на борту корабля «Дедал» должна отправиться первая интерациональная команда исследователей под командованием американца Бена Сойера (Бен Коттон). Задача астронавтов — успешно высадиться на планете и начать ее заселение. В сериале «Марс» использованы художественные и документальные съемки, компьютерная графика, реконструирующая пейзажи далекой планеты, интервью современных ученых и изобретателей.


Возраст: 12+ (зрителям, достигшим 12 лет)
Рейтинг MPAA: PG-13 (детям до 13 лет просмотр нежелателен)
Дата мировой премьеры: 13 ноября 2016
Дата премьеры в РФ: 13 ноября 2016

Продолжительность: ~ 00:47:00 серия
Качество видео: WEB-DL
Перевод: Двухголосый закадровый, профессиональный (студия «Велес»)
Текст читали: Марина Гладкая и Дмитрий Стрелков
Субтитры: Английские (вшитые, отключаемые)

Видео: AVC, 1920x1080 (16:9), 23.976 fps, 5 048 Kbps (0.102 bit/pixel)
Аудио (русский): AC-3, 48.0 KHz, 2 ch, 192 Kbps, CBR
Аудио (английский): AC-3, 48.0 KHz, 6 ch, 384 Kbps, CBR
Код:  Общее
Уникальный идентификатор                 : 182759818834479272901611681330783631991 (0x897E42C1FB10EDE892843709310CBA77)
Полное имя                               : D:\[1]\Марс\Марс - Mars (2016)_1080\Марс - Mars. Серия 01 (2016)_1080.mkv
Формат                                   : Matroska
Версия формата                           : Version 4 / Version 2
Размер файла                             : 1,89 Гбайт
Продолжительность                        : 47 м.
Общий поток                              : 5738 Кбит/сек
Дата кодирования                         : UTC 2016-11-25 16:33:02
Программа кодирования                    : mkvmerge v9.5.0 ('Quiet Fire') 64bit
Библиотека кодирования                   : libebml v1.3.4 + libmatroska v1.4.5
Attachements                             : cover.mars.jpg
DURATION                                 : 00:47:15.456000000
NUMBER_OF_FRAMES                         : 88608
NUMBER_OF_BYTES                          : 68050944
_STATISTICS_WRITING_APP                  : mkvmerge v9.5.0 ('Quiet Fire') 64bit
_STATISTICS_WRITING_DATE_UTC             : 2016-11-25 16:33:02
_STATISTICS_TAGS                         : BPS DURATION NUMBER_OF_FRAMES NUMBER_OF_BYTES

Видео
Идентификатор                            : 1
Формат                                   : AVC
Формат/Информация                        : Advanced Video Codec
Профиль формата                          : High@L4
Параметр CABAC формата                   : Да
Параметр ReFrames формата                : 4 кадра
Идентификатор кодека                     : V_MPEG4/ISO/AVC
Продолжительность                        : 47 м.
Битрейт                                  : 5048 Кбит/сек
Ширина                                   : 1920 пикселей
Высота                                   : 1080 пикселей
Соотношение сторон                       : 16:9
Режим частоты кадров                     : Постоянный
Частота кадров                           : 23,976 кадра/сек
Цветовое пространство                    : YUV
Субдискретизация насыщенности            : 4:2:0
Битовая глубина                          : 8 бит
Тип развёртки                            : Прогрессивная
Бит/(Пиксели*Кадры)                      : 0.102
Размер потока                            : 1,67 Гбайт (88%)
Язык                                     : English
Default                                  : Да
Forced                                   : Нет
Цветовой диапазон                        : Limited
Основные цвета                           : BT.709
Характеристики трансфера                 : BT.709
Коэффициенты матрицы                     : BT.709

Аудио #1
Идентификатор                            : 2
Формат                                   : AC-3
Формат/Информация                        : Audio Coding 3
Расширение режима                        : CM (complete main)
Параметр Endianness формата              : Big
Идентификатор кодека                     : A_AC3
Продолжительность                        : 47 м.
Вид битрейта                             : Постоянный
Битрейт                                  : 192 Кбит/сек
Каналы                                   : 2 канала
Расположение каналов                     : Front: L R
Частота                                  : 48,0 КГц
Битовая глубина                          : 16 бит
Метод сжатия                             : С потерями
Размер потока                            : 64,9 Мбайт (3%)
Язык                                     : Russian
Default                                  : Да
Forced                                   : Нет

Аудио #2
Идентификатор                            : 3
Формат                                   : AC-3
Формат/Информация                        : Audio Coding 3
Расширение режима                        : CM (complete main)
Параметр Endianness формата              : Big
Идентификатор кодека                     : A_AC3
Продолжительность                        : 47 м.
Вид битрейта                             : Постоянный
Битрейт                                  : 384 Кбит/сек
Каналы                                   : 6 каналов
Расположение каналов                     : Front: L C R, Side: L R, LFE
Частота                                  : 48,0 КГц
Битовая глубина                          : 16 бит
Метод сжатия                             : С потерями
Размер потока                            : 130 Мбайт (7%)
Язык                                     : English
Default                                  : Нет
Forced                                   : Нет

Текст
Идентификатор                            : 4
Формат                                   : UTF-8
Идентификатор кодека                     : S_TEXT/UTF8
Идентификатор кодека/Информация          : UTF-8 Plain Text
Язык                                     : English
Default                                  : Нет
Forced                                   : Нет
 
01. Ново Мундо / Novo Mundo
02. Приземлились / Pressure
03. Разгерметизация / Pressure Drop
04. Мощь / Power
05. Тёмная полоса / Darkest Days
06. Перепутье / Crossroads
Раздача ведётся путём добавления новых серий; при каждом добавлении создаётся новый торрент. Чтобы начать докачку новой серии, пользователям необходимо сделать следующее:
(1) остановить скачивание,
(2) удалить старый торрент у себя из клиента (старые серии удалять не надо),
(3) скачать новый торрент и запустить его у себя в клиенте вместо старого, при этом указать клиенту путь в старую папку куда и должно происходить скачивание новых серий.

Ваш клиент при этом должен произвести хеширование (проверку) старой папки (если не производит сам - помогите ему сделать это), и будет докачивать только те серии которых у вас ещё нет. Старые серии при этом не удаляются, а продолжают раздаваться!

Eсли вы уже удалили старые серии, то предотвратить повторную закачку старых серий можно, отжав галочку в соответствующих местах при запуске нового торрента. По возможности, желательно не удалять старые серии как можно дольше чтобы релизёр не столько продолжал раздавать старые серии, а смог сконцентрироваться на новых.

Скриншоты:



Время раздачи: 24/7. До первых 5 скачавших.
 
Не забывайте говорить Спасибо. Не уходите с раздачи!   
Торрент: Зарегистрирован [10 дек 2016, 20:44] Для скачивания .torrent
необходима регистрация
Или скачать с помощью
MediaGet
Статус:
Проверен
 
.torrent скачан: 0 раз
Хэш: cefec78829e37e4502781ab9146844c7bf301c9b
Размер: 7.56 ГБ (8 121 406 733 байт)
Стать Автором раздачи
 
 
Раздал: 100 ГБ
Скачал: 0 байт
Ратио: Seed.
Сообщения: 93573
Зарегистрирован: 09 апр 2015, 22:31


  • Похожие торренты
    Ответы
    Просмотры
    Последнее сообщение

Вернуться в National Geographic

Ресурс не предоставляет электронные версии произведений, а занимается лишь коллекционированием и каталогизацией ссылок, присылаемых и публикуемых на форуме нашими читателями. Если вы являетесь правообладателем какого-либо представленного материала и не желаете чтобы ссылка на него находилась в нашем каталоге, свяжитесь с нами и мы незамедлительно удалим её. Файлы для обмена на трекере предоставлены пользователями сайта, и администрация не несёт ответственности за их содержание. Просьба не заливать файлы, защищенные авторскими правами, а также файлы нелегального содержания!
cron